<svg xmlns="http://www.w3.org/2000/svg">
<defs>
<font id="Comfortaa-Bold" horiz-adv-x="1280" >
  <font-face 
    font-family="Comfortaa"
    font-weight="700"
    font-stretch="normal"
    units-per-em="2048"
    panose-1="2 15 8 3 7 2 0 6 0 3"
    ascent="1638"
    descent="-410"
    x-height="1120"
    cap-height="1600"
    bbox="-384 -481.001 2596 2080"
    underline-thickness="150"
    underline-position="-142"
    unicode-range="U+0020-U+F002"
  />
<missing-glyph 
d="M442 1041c0 -24 -8.49902 -44.333 -25.499 -61s-37.5 -25 -61.5 -25s-44.333 8.33301 -61 25s-25 37 -25 61c0 52 10 100.833 30 146.5s47.167 85.5 81.5 119.5s74.166 60.833 119.499 80.5s93.333 29.5 144 29.5c51.333 0 99.833 -10 145.5 -30s85.5 -47 119.5 -81
s61 -73.833 81 -119.5s30 -94.167 30 -145.5c0 -103.333 -37 -192.333 -111 -267l-119 -111c-18.667 -19.333 -33.167 -40.833 -43.5 -64.5s-15.5 -49.5 -15.5 -77.5c0 -24 -8.33301 -44.5 -25 -61.5s-37.334 -25.5 -62.001 -25.5c-24 0 -44.333 8.5 -61 25.5
s-25 37.5 -25 61.5c0 104 37 192.667 111 266l120 112c18.667 19.333 33 40.833 43 64.5s15 49.5 15 77.5s-5.33301 54.333 -16 79s-25.167 46.167 -43.5 64.5s-39.833 32.833 -64.5 43.5s-51 16 -79 16s-54.167 -5.33301 -78.5 -16s-45.666 -25.167 -63.999 -43.5
s-32.833 -39.833 -43.5 -64.5s-16 -51 -16 -79zM760.001 298c0 -15.333 -3 -30 -9 -44s-14.167 -26.333 -24.5 -37s-22.5 -19 -36.5 -25s-29.333 -9 -46 -9c-15.333 0 -30 3 -44 9s-26.333 14.333 -37 25s-19 23 -25 37s-9 28.667 -9 44c0 16.667 3 32 9 46
s14.333 26.167 25 36.5s23 18.5 37 24.5s28.667 9 44 9c34 0 61.833 -10.833 83.5 -32.5s32.5 -49.5 32.5 -83.5zM229.001 153h831v1294h-831v-1294zM163.001 0c-24.667 0 -45.334 8.5 -62.001 25.5s-25 37.5 -25 61.5v1426c0 24 8.33301 44.5 25 61.5
s37.334 25.5 62.001 25.5h963c24.667 0 45.334 -8.5 62.001 -25.5s25 -37.5 25 -61.5v-1426c0 -24 -8.33301 -44.5 -25 -61.5s-37.334 -25.5 -62.001 -25.5h-963z" />
    <glyph glyph-name=".notdef" 
d="M442 1041c0 -24 -8.49902 -44.333 -25.499 -61s-37.5 -25 -61.5 -25s-44.333 8.33301 -61 25s-25 37 -25 61c0 52 10 100.833 30 146.5s47.167 85.5 81.5 119.5s74.166 60.833 119.499 80.5s93.333 29.5 144 29.5c51.333 0 99.833 -10 145.5 -30s85.5 -47 119.5 -81
s61 -73.833 81 -119.5s30 -94.167 30 -145.5c0 -103.333 -37 -192.333 -111 -267l-119 -111c-18.667 -19.333 -33.167 -40.833 -43.5 -64.5s-15.5 -49.5 -15.5 -77.5c0 -24 -8.33301 -44.5 -25 -61.5s-37.334 -25.5 -62.001 -25.5c-24 0 -44.333 8.5 -61 25.5
s-25 37.5 -25 61.5c0 104 37 192.667 111 266l120 112c18.667 19.333 33 40.833 43 64.5s15 49.5 15 77.5s-5.33301 54.333 -16 79s-25.167 46.167 -43.5 64.5s-39.833 32.833 -64.5 43.5s-51 16 -79 16s-54.167 -5.33301 -78.5 -16s-45.666 -25.167 -63.999 -43.5
s-32.833 -39.833 -43.5 -64.5s-16 -51 -16 -79zM760.001 298c0 -15.333 -3 -30 -9 -44s-14.167 -26.333 -24.5 -37s-22.5 -19 -36.5 -25s-29.333 -9 -46 -9c-15.333 0 -30 3 -44 9s-26.333 14.333 -37 25s-19 23 -25 37s-9 28.667 -9 44c0 16.667 3 32 9 46
s14.333 26.167 25 36.5s23 18.5 37 24.5s28.667 9 44 9c34 0 61.833 -10.833 83.5 -32.5s32.5 -49.5 32.5 -83.5zM229.001 153h831v1294h-831v-1294zM163.001 0c-24.667 0 -45.334 8.5 -62.001 25.5s-25 37.5 -25 61.5v1426c0 24 8.33301 44.5 25 61.5
s37.334 25.5 62.001 25.5h963c24.667 0 45.334 -8.5 62.001 -25.5s25 -37.5 25 -61.5v-1426c0 -24 -8.33301 -44.5 -25 -61.5s-37.334 -25.5 -62.001 -25.5h-963z" />
    <glyph glyph-name="space" unicode=" " horiz-adv-x="600" 
 />
    <glyph glyph-name="space" unicode="&#xa0;" horiz-adv-x="600" 
 />
    <glyph glyph-name="exclam" unicode="!" horiz-adv-x="400" 
d="M353 142c0 -20 -3.83105 -38.667 -11.498 -56s-18 -32.333 -31 -45s-28.167 -22.667 -45.5 -30s-35.333 -11 -54 -11c-19.333 0 -37.5 3.66699 -54.5 11s-32 17.333 -45 30s-23.333 27.667 -31 45s-11.5 36 -11.5 56c0 19.333 3.66699 37.666 11 54.999
s17.5 32.5 30.5 45.5s28.167 23.333 45.5 31s35.666 11.5 54.999 11.5s37.666 -3.83301 54.999 -11.5s32.5 -18 45.5 -31s23.167 -28.167 30.5 -45.5s11 -35.666 11 -54.999zM107.002 1494c0 29.333 9.83301 54.166 29.5 74.499s44.5 30.5 74.5 30.5
s54.833 -10.167 74.5 -30.5s29.5 -45.166 29.5 -74.499v-1044c0 -14 -2.83301 -27.333 -8.5 -40s-13.167 -23.667 -22.5 -33s-20.333 -16.666 -33 -21.999s-26 -8 -40 -8c-14.667 0 -28.334 2.83301 -41.001 8.5s-23.667 13.167 -33 22.5s-16.666 20.166 -21.999 32.499
s-8 25.5 -8 39.5v1044z" />
    <glyph glyph-name="quotedbl" unicode="&#x22;" horiz-adv-x="560" 
d="M269 1494l-19.0039 -286c-0.666992 -23.333 -9.16699 -43.166 -25.5 -59.499s-36.166 -24.5 -59.499 -24.5s-43.166 8.16699 -59.499 24.5s-24.833 36.166 -25.5 59.499l-19 286c0 14 2.66699 27.333 8 40s12.833 23.834 22.5 33.501s20.834 17.167 33.501 22.5
s26 8 40 8s27.333 -2.66699 40 -8s23.834 -12.833 33.501 -22.5s17.167 -20.834 22.5 -33.501s8 -26 8 -40zM515.996 1495l-19.0039 -286c-0.666992 -23.333 -9.16699 -43.166 -25.5 -59.499s-36.166 -24.5 -59.499 -24.5s-43.166 8.16699 -59.499 24.5
s-24.833 36.166 -25.5 59.499l-19 286c0 14 2.66699 27.333 8 40s12.833 23.834 22.5 33.501s20.834 17.167 33.501 22.5s26 8 40 8s27.333 -2.66699 40 -8s23.834 -12.833 33.501 -22.5s17.167 -20.834 22.5 -33.501s8 -26 8 -40z" />
    <glyph glyph-name="numbersign" unicode="#" 
d="M426 102c-2.66699 -14.667 -7.83301 -28 -15.5 -40s-16.834 -22.667 -27.501 -32s-22.667 -16.666 -36 -21.999s-27 -8 -41 -8c-28.667 0 -51.5 9.16699 -68.5 27.5s-25.5 40.833 -25.5 67.5c0 5.33301 0.333008 10.666 1 15.999l63 353h-119
c-12.667 0 -24.667 2.16699 -36 6.5s-21.5 10.5 -30.5 18.5s-15.833 17.667 -20.5 29s-7 23.666 -7 36.999l1 19c2 14.667 6.66699 28 14 40s16.666 22.667 27.999 32s23.833 16.5 37.5 21.5s27.167 7.5 40.5 7.5h129l44 251h-119c-27.333 0 -50 8.83301 -68 26.5
s-27 39.5 -27 65.5c0 16 3.5 31.333 10.5 46s16 27.5 27 38.5s24 19.667 39 26s30.167 9.5 45.5 9.5h129l64 362c2.66699 14.667 7.83398 28 15.501 40s16.834 22.667 27.501 32s22.667 16.666 36 21.999s27 8 41 8c28.667 0 51.5 -9.33301 68.5 -28s25.5 -41.667 25.5 -69
c0 -6.66699 -0.333008 -11.667 -1 -15l-62 -352h172l64 362c2 14.667 6.66699 28 14 40s16.5 22.667 27.5 32s23 16.666 36 21.999s26.833 8 41.5 8c28 0 50.667 -9.5 68 -28.5s26 -41.833 26 -68.5c0 -6.66699 -0.333008 -11.667 -1 -15l-62 -352h120
c12 0 23.667 -2.16699 35 -6.5s21.333 -10.5 30 -18.5s15.5 -17.667 20.5 -29s7.5 -23.666 7.5 -36.999l-1 -19c-2 -14.667 -6.83301 -28 -14.5 -40s-17 -22.667 -28 -32s-23.333 -16.666 -37 -21.999s-27.167 -8 -40.5 -8h-129l-45 -251h120
c27.333 0 49.833 -8.83301 67.5 -26.5s26.5 -39.5 26.5 -65.5c0 -16 -3.33301 -31.333 -10 -46s-15.667 -27.334 -27 -38.001s-24.333 -19.167 -39 -25.5s-30 -9.5 -46 -9.5h-129l-64 -362c-2.66699 -14.667 -7.66699 -28 -15 -40s-16.5 -22.667 -27.5 -32
s-23 -16.666 -36 -21.999s-26.833 -8 -41.5 -8c-26.667 0 -49 8.83301 -67 26.5s-27 39.167 -27 64.5c0 6.66699 0.666992 13.334 2 20.001l62 353h-172zM571.001 926l-43 -251h170l45 251h-172z" />
    <glyph glyph-name="dollar" unicode="$" horiz-adv-x="1060" 
d="M457 1337c-64 -41.333 -96.001 -98 -96.001 -170c0 -33.333 8.33301 -66 25 -98s40.334 -56.667 71.001 -74v342zM664.999 261c20 16 37.334 31.832 52.001 47.499s26.5 32.334 35.5 50.001s15.667 37 20 58s6.5 44.833 6.5 71.5c0 42 -9.33301 83 -28 123
s-47.334 72.667 -86.001 98v-448zM457 -47.001l-0.00488281 50.001c-72.667 7.33301 -140.5 29.666 -203.5 66.999s-114.833 86.666 -155.5 147.999c-14 18 -21 39.333 -21 64c0 30 9.83301 54.833 29.5 74.5s44.5 29.5 74.5 29.5c16 0 30.167 -3.66699 42.5 -11
s24.5 -16.666 36.5 -27.999s24 -23.833 36 -37.5s25.667 -26.834 41 -39.501s32.666 -24.167 51.999 -34.5s42 -17.5 68 -21.5v556c-43.333 11.333 -83.666 29.5 -120.999 54.5s-69.666 55 -96.999 90s-48.666 73.667 -63.999 116s-23 86.5 -23 132.5
c0 46.667 7.33301 91.334 22 134.001s35.334 81.5 62.001 116.5s58.667 65.333 96 91s79 44.5 125 56.5v62c0 30 9.83301 54.833 29.5 74.5s44.5 29.5 74.5 29.5s54.833 -9.83301 74.5 -29.5s29.5 -44.5 29.5 -74.5v-63c24 -6 48 -14.667 72 -26s46.667 -24.833 68 -40.5
s41.166 -33.5 59.499 -53.5s33.833 -41.667 46.5 -65c4.66699 -8.66699 8.33398 -17.334 11.001 -26.001s4 -18.667 4 -30c0 -30 -9.83301 -54.833 -29.5 -74.5s-44.5 -29.5 -74.5 -29.5c-19.333 0 -35 4 -47 12s-23.333 18 -34 30s-21.667 25.167 -33 39.5
s-25.666 27.5 -42.999 39.5v-394c46.667 -16.667 89.834 -40.167 129.501 -70.5s73.834 -65.333 102.501 -105s51 -83 67 -130s24 -95.5 24 -145.5c0 -52 -7.5 -102 -22.5 -150s-36.5 -92.167 -64.5 -132.5s-61.833 -76.166 -101.5 -107.499s-84.5 -56 -134.5 -74v-74
c0 -14 -2.66699 -27.333 -8 -40s-12.833 -23.834 -22.5 -33.501s-20.834 -17.167 -33.501 -22.5s-26 -8 -40 -8c-14.667 0 -28.334 2.66699 -41.001 8s-23.667 12.833 -33 22.5s-16.666 20.834 -21.999 33.501s-8 26 -8 40z" />
    <glyph glyph-name="percent" unicode="%" horiz-adv-x="1760" 
d="M872 1190c0 -55.333 -10.667 -107.666 -32 -156.999s-50.5 -92.666 -87.5 -129.999s-80.333 -66.833 -130 -88.5s-102.5 -32.5 -158.5 -32.5s-108.833 10.833 -158.5 32.5s-93 51.167 -130 88.5s-66.167 80.666 -87.5 129.999s-32 101.666 -32 156.999
s10.667 107.833 32 157.5s50.5 93.167 87.5 130.5s80.333 66.833 130 88.5s102.5 32.5 158.5 32.5s108.833 -10.833 158.5 -32.5s93 -51.167 130 -88.5s66.167 -80.833 87.5 -130.5s32 -102.167 32 -157.5zM889 408c0 55.333 10.6689 107.835 32.002 157.502
s50.5 93 87.5 130s80.167 66.333 129.5 88s102.333 32.5 159 32.5c55.333 0 107.666 -10.667 156.999 -32s92.666 -50.333 129.999 -87s66.833 -79.834 88.5 -129.501s32.5 -102.834 32.5 -159.501s-10.833 -109.667 -32.5 -159s-51 -92.5 -88 -129.5
s-80.333 -66.167 -130 -87.5s-102.167 -32 -157.5 -32c-56 -0 -108.667 10.833 -158 32.5s-92.5 51 -129.5 88s-66.333 80.167 -88 129.5s-32.5 102 -32.5 158zM464.002 1390c-28 0 -53.999 -5.33301 -77.999 -16s-45 -25.167 -63 -43.5s-32.167 -39.666 -42.5 -63.999
s-15.5 -49.833 -15.5 -76.5c0 -27.333 5.16699 -53 15.5 -77s24.333 -45 42 -63s38.667 -32.333 63 -43s50.5 -16 78.5 -16c27.333 0 53.166 5.33301 77.499 16s45.5 25 63.5 43s32.167 39 42.5 63s15.5 49.667 15.5 77c0 26.667 -5.33301 52.167 -16 76.5
s-25 45.666 -43 63.999s-39 32.833 -63 43.5s-49.667 16 -77 16zM1297 607.002c-27.333 0 -53.166 -5.16895 -77.499 -15.502s-45.5 -24.5 -63.5 -42.5s-32.167 -39.167 -42.5 -63.5s-15.5 -50.166 -15.5 -77.499s5.16699 -53.166 15.5 -77.499s24.5 -45.5 42.5 -63.5
s39.167 -32.167 63.5 -42.5s50.166 -15.5 77.499 -15.5s53.166 5.33301 77.499 16s45.5 25 63.5 43s32.333 39 43 63s16 49.667 16 77s-5.33301 53 -16 77s-25 45 -43 63s-39.167 32.333 -63.5 43s-50.166 16 -77.499 16zM342.003 0
c-14.667 0 -28.335 2.66602 -41.002 7.99902s-23.667 12.833 -33 22.5s-16.666 20.834 -21.999 33.501s-8 26 -8 40c0 28.667 8.33301 52.334 25 71.001l1077 1383c24 28 52 42 84 42c14.667 0 28.334 -2.83301 41.001 -8.5s23.667 -13.167 33 -22.5
s16.833 -20.333 22.5 -33s8.5 -26.334 8.5 -41.001c0 -24 -7 -45 -21 -63l-1088 -1399c-20 -22 -46 -33 -78 -33z" />
    <glyph glyph-name="ampersand" unicode="&#x26;" horiz-adv-x="1440" 
d="M510 1007l94.999 74.999c26.667 22 47.334 45.167 62.001 69.5s22 48.833 22 73.5c0 22.667 -4.33301 44 -13 64s-20.667 37.5 -36 52.5s-32.833 26.833 -52.5 35.5s-40.5 13 -62.5 13c-22.667 0 -44 -4.5 -64 -13.5s-37.333 -21 -52 -36s-26.167 -32.5 -34.5 -52.5
s-12.5 -41 -12.5 -63c0 -45.333 15.333 -83.666 46 -114.999zM809.999 406.999l-321 321.998l-90 -69c-36.667 -30.667 -65 -61.5 -85 -92.5s-30 -62.5 -30 -94.5c0 -40 6.33301 -76.167 19 -108.5s30 -59.666 52 -81.999s47.667 -39.666 77 -51.999s60.333 -18.5 93 -18.5
c66 0 122.667 23.333 170 70zM658.999 858.997l296.002 -299l151 162c9.33301 10 20.666 17.5 33.999 22.5s27 7.5 41 7.5c30 0 55.333 -10 76 -30s31 -45.333 31 -76c0 -14 -2.33301 -26.833 -7 -38.5s-11.667 -22.834 -21 -33.501l-154 -165l228 -230
c20.667 -20.667 31 -45 31 -73c0 -14.667 -2.83301 -28.334 -8.5 -41.001s-13.334 -24 -23.001 -34s-20.834 -17.667 -33.501 -23s-26.667 -8 -42 -8c-28 0 -52.667 9.33301 -74 28l-224 226l-114 -121c-89.333 -88.667 -196.333 -133 -321 -133
c-61.333 0 -119.5 11.667 -174.5 35s-103.167 56 -144.5 98s-74 92 -98 150s-36 121.333 -36 190c0 63.333 15.833 123.5 47.5 180.5s80.167 110.833 145.5 161.5l77 60l-84 84h1c-73.333 74.667 -110 163.334 -110 266.001c0 51.333 10 100 30 146s47.333 86 82 120
s74.667 61 120 81s93.333 30 144 30c52 0 100.833 -10.167 146.5 -30.5s85.334 -47.666 119.001 -81.999s60.5 -74.333 80.5 -120s30 -93.834 30 -144.501c0 -111.333 -50.333 -210.666 -151 -297.999z" />
    <glyph glyph-name="quotesingle" unicode="'" horiz-adv-x="320" 
d="M269 1494l-19.0039 -286c-0.666992 -23.333 -9.16699 -43.166 -25.5 -59.499s-36.166 -24.5 -59.499 -24.5s-43.166 8.16699 -59.499 24.5s-24.833 36.166 -25.5 59.499l-19 286c0 14 2.66699 27.333 8 40s12.833 23.834 22.5 33.501s20.834 17.167 33.501 22.5
s26 8 40 8s27.333 -2.66699 40 -8s23.834 -12.833 33.501 -22.5s17.167 -20.834 22.5 -33.501s8 -26 8 -40z" />
    <glyph glyph-name="parenleft" unicode="(" horiz-adv-x="560" 
d="M303 1525c10.667 23.333 24.668 41.1689 42.001 53.502s36.333 18.5 57 18.5c14.667 0 28.334 -2.83301 41.001 -8.5s23.667 -13.5 33 -23.5s16.666 -21.5 21.999 -34.5s8 -26.833 8 -41.5c-2 -22.667 -7 -40.334 -15 -53.001c-142.667 -292 -214 -584 -214 -876
c0 -144.667 18.667 -291.5 56 -440.5s90.666 -295.833 159.999 -440.5c4 -8.66699 7.16699 -17 9.5 -25s3.5 -17 3.5 -27c0 -30 -9.83301 -55.333 -29.5 -76s-44.5 -31 -74.5 -31c-21.333 0 -40 5.5 -56 16.5s-30 29.167 -42 54.5c-155.333 322 -233 645.333 -233 970
c0 325.333 77.333 646.666 232 963.999z" />
    <glyph glyph-name="parenright" unicode=")" horiz-adv-x="560" 
d="M506 561c0 -164 -19.498 -326.167 -58.498 -486.5s-97.167 -321.5 -174.5 -483.5c-12 -25.333 -26 -43.5 -42 -54.5s-34.667 -16.5 -56 -16.5c-30 0 -54.833 10.333 -74.5 31s-29.5 46 -29.5 76c0 10 1.16699 19 3.5 27s5.5 16.333 9.5 25
c69.333 144.667 122.666 291.5 159.999 440.5s56 295.833 56 440.5c0 292 -71.333 584 -214 876c-8 12.667 -13 30.334 -15 53.001c0 14.667 2.66699 28.5 8 41.5s12.666 24.5 21.999 34.5s20.333 17.833 33 23.5s26.334 8.5 41.001 8.5c21.333 0 40.333 -6.16699 57 -18.5
s30.667 -30.166 42 -53.499c77.333 -160.667 135.166 -320.834 173.499 -480.501s57.833 -320.834 58.5 -483.501z" />
    <glyph glyph-name="asterisk" unicode="*" horiz-adv-x="780" 
d="M283 1233l-102.999 4c-28 3.33301 -52 14.5 -72 33.5s-30 42.833 -30 71.5c0 16 3.16699 30.333 9.5 43s14.5 23.5 24.5 32.5s21.167 16 33.5 21s24.5 7.5 36.5 7.5c11.333 0.666992 22.666 -1.16602 33.999 -5.49902s21.666 -9.83301 30.999 -16.5l80 -58l-29 94
c-3.33301 12 -5 23.333 -5 34c0 29.333 9.83301 54.166 29.5 74.499s44.5 30.5 74.5 30.5s54.833 -10.167 74.5 -30.5s29.5 -45.166 29.5 -74.499c0 -10.667 -1.66699 -22 -5 -34l-29 -96l80 60c20 14.667 41.667 22 65 22c12.667 0 25.167 -2.5 37.5 -7.5
s23.5 -12.167 33.5 -21.5s18.167 -20.333 24.5 -33s9.5 -27 9.5 -43c0 -12.667 -2.33301 -25 -7 -37s-11.5 -22.833 -20.5 -32.5s-19.667 -17.5 -32 -23.5s-26.166 -9.66699 -41.499 -11l-104 -5l83 -58c32 -23.333 48 -52.333 48 -87c0 -28 -10 -52.167 -30 -72.5
s-49.667 -30.5 -89 -30.5c-20.667 2 -37.667 9 -51 21s-24.333 28.667 -33 50l-42 103l-42 -105c-7.33301 -23.333 -19.833 -40.833 -37.5 -52.5s-38.5 -17.5 -62.5 -17.5c-16 0 -30.5 3 -43.5 9s-24 13.833 -33 23.5s-15.833 20.667 -20.5 33s-7 25.166 -7 38.499
c-0.666992 17.333 3.33301 33.333 12 48s20.667 27.667 36 39z" />
    <glyph glyph-name="plus" unicode="+" horiz-adv-x="1120" 
d="M941 683l-274.999 -0.00292969v-275c0 -30 -9.83301 -54.833 -29.5 -74.5s-44.5 -29.5 -74.5 -29.5s-55 9.83301 -75 29.5s-30 44.5 -30 74.5v275h-275c-30 0 -54.833 10 -74.5 30s-29.5 45 -29.5 75s9.83301 54.833 29.5 74.5s44.5 29.5 74.5 29.5h275v275
c0 28.667 10.167 53.334 30.5 74.001s45.166 31 74.499 31c30 0 54.833 -10.167 74.5 -30.5s29.5 -45.166 29.5 -74.499v-275h275c28.667 0 53.334 -10.167 74.001 -30.5s31 -45.166 31 -74.499c0 -28.667 -10.333 -53.167 -31 -73.5s-45.334 -30.5 -74.001 -30.5z" />
    <glyph glyph-name="comma" unicode="," horiz-adv-x="400" 
d="M353 142c0 -37.333 -3.5 -77.665 -10.5 -120.998s-17.333 -83.5 -31 -120.5s-30.5 -67.667 -50.5 -92s-43 -36.5 -69 -36.5c-24 0 -44.167 8.33301 -60.5 25s-24.5 37 -24.5 61c0 20.667 7.33301 39.167 22 55.5s22 33.166 22 50.499c0 24 -13.667 50 -41 78
c-27.333 27.333 -41 60.666 -41 99.999s13.833 72.833 41.5 100.5s61.167 41.5 100.5 41.5s72.833 -13.833 100.5 -41.5s41.5 -61.167 41.5 -100.5z" />
    <glyph glyph-name="hyphen" unicode="-" horiz-adv-x="800" 
d="M178 456c-30 0 -54.833 9.83301 -74.5 29.5s-29.5 44.5 -29.5 74.5s9.83301 54.833 29.5 74.5s44.5 29.5 74.5 29.5h456c30 0 54.833 -9.83301 74.5 -29.5s29.5 -44.5 29.5 -74.5s-9.83301 -54.833 -29.5 -74.5s-44.5 -29.5 -74.5 -29.5h-456z" />
    <glyph glyph-name="hyphen" unicode="&#xad;" horiz-adv-x="800" 
d="M178 456c-30 0 -54.833 9.83301 -74.5 29.5s-29.5 44.5 -29.5 74.5s9.83301 54.833 29.5 74.5s44.5 29.5 74.5 29.5h456c30 0 54.833 -9.83301 74.5 -29.5s29.5 -44.5 29.5 -74.5s-9.83301 -54.833 -29.5 -74.5s-44.5 -29.5 -74.5 -29.5h-456z" />
    <glyph glyph-name="period" unicode="." horiz-adv-x="400" 
d="M343 142c0 -39.333 -13.833 -72.833 -41.5 -100.5s-61.167 -41.5 -100.5 -41.5s-72.833 13.833 -100.5 41.5s-41.5 61.167 -41.5 100.5s13.833 72.833 41.5 100.5s61.167 41.5 100.5 41.5s72.833 -13.833 100.5 -41.5s41.5 -61.167 41.5 -100.5z" />
    <glyph glyph-name="slash" unicode="/" horiz-adv-x="960" 
d="M893 1452l-617 -1542c-24.667 -41.333 -56.667 -62 -96 -62c-30 0 -54.833 10 -74.5 30s-29.5 45 -29.5 75c0 13.333 3 27.666 9 42.999l617 1542c5.33301 11.333 13 22 23 32c20 20 44.333 30 73 30s53.167 -10.167 73.5 -30.5s30.5 -44.833 30.5 -73.5
c0 -16 -3 -30.667 -9 -44z" />
    <glyph glyph-name="zero" unicode="0" horiz-adv-x="1120" 
d="M78 801c0 126 11 238.502 33 337.502s53.667 182.833 95 251.5s92.333 121.167 153 157.5s130 54.5 208 54.5s147.333 -18.5 208 -55.5s111.834 -90 153.501 -159s73.334 -153 95.001 -252s32.5 -210.5 32.5 -334.5s-10.833 -235.5 -32.5 -334.5
s-53.334 -183 -95.001 -252s-92.834 -122 -153.501 -159s-130 -55.5 -208 -55.5s-147.333 18.167 -208 54.5s-111.667 88.666 -153 156.999s-73 152.166 -95 251.499s-33 212 -33 338zM567 1390c-46.667 0 -87.499 -15.001 -122.499 -45.001s-64 -71 -87 -123
s-40.167 -114.167 -51.5 -186.5s-17 -150.5 -17 -234.5c0 -85.333 5.66699 -164.166 17 -236.499s28.666 -134.5 51.999 -186.5s52.333 -92.667 87 -122s75.334 -44 122.001 -44c47.333 0 88.5 15 123.5 45s63.833 71.167 86.5 123.5s39.667 114.5 51 186.5s17 150 17 234
c0 83.333 -5.83301 161 -17.5 233s-28.834 134.333 -51.501 187s-51.5 94 -86.5 124s-75.833 45 -122.5 45z" />
    <glyph glyph-name="one" unicode="1" horiz-adv-x="560" 
d="M288 104l-0.000976562 1245c-20 -6.66699 -41 -14.167 -63 -22.5s-42 -12.5 -60 -12.5c-30 0 -54.833 9.83301 -74.5 29.5s-29.5 44.5 -29.5 74.5c0 21.333 5.5 40.333 16.5 57s27.833 30.334 50.5 41.001l229 76c12 4.66699 24 7 36 7c30 0 54.833 -10.167 74.5 -30.5
s29.5 -45.166 29.5 -74.499v-1390c0 -28.667 -10.167 -53.167 -30.5 -73.5s-45.166 -30.5 -74.499 -30.5c-28.667 0 -53.167 10.167 -73.5 30.5s-30.5 44.833 -30.5 73.5z" />
    <glyph glyph-name="two" unicode="2" horiz-adv-x="1120" 
d="M78 1115c0 66.667 12.8311 129.333 38.498 188s60.5 110 104.5 154s95.333 78.667 154 104s121 38 187 38s128.333 -13 187 -39s110 -61 154 -105s78.833 -95.333 104.5 -154s38.5 -120.667 38.5 -186c0 -66.667 -12.167 -128.667 -36.5 -186s-59.5 -109.333 -105.5 -156
l-486 -564h523c29.333 0 54.166 -10.333 74.499 -31s30.5 -45.334 30.5 -74.001s-10.167 -53.167 -30.5 -73.5s-45.166 -30.5 -74.499 -30.5h-759c-14.667 0 -28.334 2.66699 -41.001 8s-23.667 12.833 -33 22.5s-16.666 20.834 -21.999 33.501s-8 26 -8 40
c0 30 9.66699 54.667 29 74l648 740c54.667 54.667 82 120.334 82 197.001c0 37.333 -7.33301 72.666 -22 105.999s-34.5 62.5 -59.5 87.5s-54.167 44.833 -87.5 59.5s-68.666 22 -105.999 22c-38 0 -73.667 -7.16699 -107 -21.5s-62.5 -33.833 -87.5 -58.5
s-44.667 -53.667 -59 -87s-21.5 -69.333 -21.5 -108c0 -28.667 -10.167 -53.167 -30.5 -73.5s-45.166 -30.5 -74.499 -30.5c-28.667 0 -53.167 10.167 -73.5 30.5s-30.5 44.833 -30.5 73.5z" />
    <glyph glyph-name="three" unicode="3" horiz-adv-x="1120" 
d="M154 1186c0 58 10.834 112.165 32.501 162.498s51 94.333 88 132s80.167 67.334 129.5 89.001s102 32.5 158 32.5s108.667 -11 158 -33s92.5 -52 129.5 -90s66.333 -82 88 -132s32.5 -103.667 32.5 -161c0 -110.667 -41 -209 -123 -295c132.667 -106 199 -239 199 -399
c0 -67.333 -12.667 -130.833 -38 -190.5s-60 -111.834 -104 -156.501s-95.333 -80 -154 -106s-121.334 -39 -188.001 -39s-129.334 12.833 -188.001 38.5s-110 60.834 -154 105.501s-78.667 96.834 -104 156.501s-38 123.5 -38 191.5c0 30.667 9.83301 56 29.5 76
s44.5 30 74.5 30c29.333 0 54.166 -10 74.499 -30s30.5 -45.333 30.5 -76c0 -39.333 7.16699 -76 21.5 -110s33.833 -63.5 58.5 -88.5s53.667 -44.833 87 -59.5s69.333 -22 108 -22c38 0 73.833 7.5 107.5 22.5s62.834 35.167 87.501 60.5s44.167 55 58.5 89
s21.5 70 21.5 108s-7.16699 74 -21.5 108s-33.833 63.667 -58.5 89s-53.834 45.5 -87.501 60.5s-69.5 22.5 -107.5 22.5c-30 0 -55 10.167 -75 30.5s-30 45.5 -30 75.5c0 30.667 10 56 30 76s45 30 75 30c26.667 0 52.167 5.33301 76.5 16s45.5 25.167 63.5 43.5
s32.333 39.833 43 64.5s16 50.667 16 78c0 28 -5.33301 54.333 -16 79s-25.167 46.167 -43.5 64.5s-39.5 33 -63.5 44s-49.333 16.5 -76 16.5c-27.333 0 -53.166 -5.5 -77.499 -16.5s-45.5 -25.667 -63.5 -44s-32.333 -39.833 -43 -64.5s-15.667 -51 -15 -79
c0 -28.667 -10.167 -53.334 -30.5 -74.001s-45.166 -31 -74.499 -31c-28.667 0 -53.167 10.333 -73.5 31s-30.5 45.334 -30.5 74.001z" />
    <glyph glyph-name="four" unicode="4" 
d="M763 611v549l-379 -549h379zM763 104l-0.00195312 299.002h-579c-30 0 -54.833 9.83301 -74.5 29.5s-29.5 44.5 -29.5 74.5c0 23.333 6.66699 43.666 20 60.999l682 987c9.33301 13.333 21.5 24 36.5 32s31.5 12 49.5 12c14 0 27.333 -2.83301 40 -8.5
s23.834 -13.167 33.501 -22.5s17.167 -20.333 22.5 -33s8 -26.334 8 -41.001v-883h123c29.333 0 54.166 -9.83301 74.499 -29.5s30.5 -44.5 30.5 -74.5s-10.167 -54.833 -30.5 -74.5s-45.166 -29.5 -74.499 -29.5h-123v-299c0 -28.667 -10.167 -53.167 -30.5 -73.5
s-45.166 -30.5 -74.499 -30.5c-28.667 0 -53.167 10.167 -73.5 30.5s-30.5 44.833 -30.5 73.5z" />
    <glyph glyph-name="five" unicode="5" horiz-adv-x="1200" 
d="M942 1390h-579.002v-346h238c70 0 136.5 -13.667 199.5 -41s118.5 -64.5 166.5 -111.5s86 -102.333 114 -166s42 -131.5 42 -203.5c0 -71.333 -13.833 -138.666 -41.5 -201.999s-65.167 -118.666 -112.5 -165.999s-102.666 -84.833 -165.999 -112.5
s-130.666 -41.5 -201.999 -41.5s-138.666 13.833 -201.999 41.5s-118.666 65.167 -165.999 112.5s-84.833 102.666 -112.5 165.999s-41.5 130.666 -41.5 201.999c0 30 9.83301 54.833 29.5 74.5s44.5 29.5 74.5 29.5c29.333 0 54.166 -9.83301 74.499 -29.5
s30.5 -44.5 30.5 -74.5c0 -43.333 8.16699 -84 24.5 -122s38.666 -71.167 66.999 -99.5s61.5 -50.666 99.5 -66.999s78.667 -24.5 122 -24.5c42.667 0 83 8.16699 121 24.5s71.333 38.833 100 67.5s51.167 61.834 67.5 99.501s24.5 78.167 24.5 121.5
c0 42.667 -8.33301 83 -25 121s-39.167 71.167 -67.5 99.5s-61.5 50.833 -99.5 67.5s-78.333 25 -121 25h-342c-30 0 -54.833 10 -74.5 30s-29.5 45 -29.5 75v554c0 29.333 9.83301 54.166 29.5 74.499s44.5 30.5 74.5 30.5h683c29.333 0 54.166 -10.333 74.499 -31
s30.5 -45.334 30.5 -74.001s-10.167 -53.167 -30.5 -73.5s-45.166 -30.5 -74.499 -30.5z" />
    <glyph glyph-name="six" unicode="6" horiz-adv-x="1120" 
d="M533 968l29.001 -0.000976562c66.667 0 129.334 -12.833 188.001 -38.5s110 -60.5 154 -104.5s78.667 -95.333 104 -154s38 -121 38 -187s-12.667 -128.333 -38 -187s-60 -110 -104 -154s-95.333 -78.833 -154 -104.5s-121.334 -38.5 -188.001 -38.5
s-129.334 12.667 -188.001 38s-110 60 -154 104s-78.667 95.333 -104 154s-38 121.334 -38 188.001c0 98.667 26 187 78 265l-1 -2l480 797c10 16.667 23 30.167 39 40.5s34 15.5 54 15.5c30 0 54.833 -10.167 74.5 -30.5s29.5 -45.166 29.5 -74.499
c0 -16.667 -4.66699 -34.334 -14 -53.001zM837.001 483.999c0 37.333 -7.16699 72.6689 -21.5 106.002s-33.833 62.5 -58.5 87.5s-53.834 44.833 -87.501 59.5s-69.5 22 -107.5 22c-38.667 0 -74.667 -7.16699 -108 -21.5s-62.333 -33.833 -87 -58.5
s-44.167 -53.834 -58.5 -87.501s-21.5 -69.5 -21.5 -107.5c0 -38.667 7.16699 -74.667 21.5 -108s33.833 -62.333 58.5 -87s53.667 -44.167 87 -58.5s69.333 -21.5 108 -21.5c38 0 73.833 7.33301 107.5 22s62.834 34.5 87.501 59.5s44.167 54.167 58.5 87.5
s21.5 68.666 21.5 105.999z" />
    <glyph glyph-name="seven" unicode="7" horiz-adv-x="1120" 
d="M96 169l681.999 1222h-583c-30 0 -54.833 9.83301 -74.5 29.5s-29.5 44.5 -29.5 74.5c0 29.333 9.83301 54.166 29.5 74.499s44.5 30.5 74.5 30.5h759c14.667 0 28.334 -2.83301 41.001 -8.5s23.667 -13.167 33 -22.5s16.833 -20.333 22.5 -33s8.5 -26.334 8.5 -41.001
c0 -18 -5 -36.667 -15 -56l-768 -1381c-5.33301 -10 -12 -19 -20 -27c-20.667 -20.667 -45.667 -31 -75 -31c-28.667 0 -53.167 10.167 -73.5 30.5s-30.5 44.833 -30.5 73.5c0 21.333 6.33301 43 19 65z" />
    <glyph glyph-name="eight" unicode="8" horiz-adv-x="1120" 
d="M569 1386c-28 0 -54.334 -5.33203 -79.001 -15.999s-46.167 -25.167 -64.5 -43.5s-32.833 -39.833 -43.5 -64.5s-16 -51 -16 -79c0 -27.333 5.16699 -53.333 15.5 -78s24.666 -46.167 42.999 -64.5s39.833 -32.666 64.5 -42.999s51.334 -15.5 80.001 -15.5
c26.667 0 52.334 5.33301 77.001 16s46.167 25.167 64.5 43.5s33 39.666 44 63.999s16.5 50.166 16.5 77.499c0 28 -5.5 54.333 -16.5 79s-25.833 46.167 -44.5 64.5s-40.167 32.833 -64.5 43.5s-49.833 16 -76.5 16zM568.999 770.001
c-39.333 0 -75.833 -7.33301 -109.5 -22s-63 -34.5 -88 -59.5s-44.833 -54.5 -59.5 -88.5s-22 -70.333 -22 -109c0 -39.333 7.33301 -75.833 22 -109.5s34.5 -63 59.5 -88s54.333 -44.833 88 -59.5s70.167 -22 109.5 -22c38.667 0 75 7.5 109 22.5s63.5 35.167 88.5 60.5
s44.833 54.833 59.5 88.5s22 69.5 22 107.5s-7.33301 73.833 -22 107.5s-34.5 63.167 -59.5 88.5s-54.5 45.5 -88.5 60.5s-70.333 22.5 -109 22.5zM278.999 888.001c-82.667 82.667 -124 180.998 -124 294.998c0 57.333 11 111.333 33 162s51.833 94.667 89.5 132
s81.5 66.833 131.5 88.5s103.333 32.5 160 32.5s110 -11 160 -33s93.833 -51.833 131.5 -89.5s67.334 -81.667 89.001 -132s32.5 -103.833 32.5 -160.5c0 -113.333 -41.333 -211.666 -124 -294.999c134.667 -106 202 -238.333 202 -397c0 -67.333 -13 -130.666 -39 -189.999
s-61.167 -111.333 -105.5 -156s-96.333 -80 -156 -106s-123.167 -39 -190.5 -39c-68 0 -131.667 12.833 -191 38.5s-111.333 60.834 -156 105.501s-79.834 96.667 -105.501 156s-38.5 123 -38.5 191c0 159.333 67 291.666 201 396.999z" />
    <glyph glyph-name="nine" unicode="9" horiz-adv-x="1120" 
d="M597 615l-28 -0.000976562c-67.333 0 -130.666 13 -189.999 39s-111.333 61.167 -156 105.5s-80 96.333 -106 156s-39 123.5 -39 191.5s13 131.667 39 191s61.333 111.333 106 156s96.667 79.834 156 105.501s122.666 38.5 189.999 38.5
c66.667 0 129.834 -13.167 189.501 -39.5s111.667 -61.833 156 -106.5s79.666 -96.667 105.999 -156s39.5 -122.333 39.5 -189c0 -99.333 -26.667 -188.666 -80 -267.999l-471 -782c-24 -38 -55.333 -57 -94 -57c-15.333 0 -29.333 2.66699 -42 8s-24 13 -34 23
s-17.667 21.333 -23 34s-8 26 -8 40c0 19.333 5 37.666 15 54.999zM290 1107c0 -40 7.5 -77.001 22.5 -111.001s35.167 -63.5 60.5 -88.5s54.833 -44.667 88.5 -59s69.5 -21.5 107.5 -21.5c38.667 0 74.834 7.5 108.501 22.5s63.167 35.167 88.5 60.5s45.333 54.833 60 88.5
s22 69.834 22 108.501c0 38 -7.5 73.833 -22.5 107.5s-35.167 63.167 -60.5 88.5s-54.833 45.5 -88.5 60.5s-69.5 22.5 -107.5 22.5c-38.667 0 -74.834 -7.33301 -108.501 -22s-63.167 -34.5 -88.5 -59.5s-45.333 -54.333 -60 -88s-22 -70.167 -22 -109.5z" />
    <glyph glyph-name="colon" unicode=":" horiz-adv-x="400" 
d="M343 142c0 -39.333 -13.833 -72.833 -41.5 -100.5s-61.167 -41.5 -100.5 -41.5s-72.833 13.833 -100.5 41.5s-41.5 61.167 -41.5 100.5s13.833 72.833 41.5 100.5s61.167 41.5 100.5 41.5s72.833 -13.833 100.5 -41.5s41.5 -61.167 41.5 -100.5zM343 976
c0 -39.333 -13.833 -72.833 -41.5 -100.5s-61.167 -41.5 -100.5 -41.5s-72.833 13.833 -100.5 41.5s-41.5 61.167 -41.5 100.5s13.833 72.833 41.5 100.5s61.167 41.5 100.5 41.5s72.833 -13.833 100.5 -41.5s41.5 -61.167 41.5 -100.5z" />
    <glyph glyph-name="semicolon" unicode=";" horiz-adv-x="400" 
d="M343 976c0 -39.333 -13.833 -72.833 -41.5 -100.5s-61.167 -41.5 -100.5 -41.5s-72.833 13.833 -100.5 41.5s-41.5 61.167 -41.5 100.5s13.833 72.833 41.5 100.5s61.167 41.5 100.5 41.5s72.833 -13.833 100.5 -41.5s41.5 -61.167 41.5 -100.5zM343 142
c0 -37.333 -3.5 -77.665 -10.5 -120.998s-17.333 -83.5 -31 -120.5s-30.5 -67.667 -50.5 -92s-43 -36.5 -69 -36.5c-24 0 -44.167 8.33301 -60.5 25s-24.5 37 -24.5 61c0 20.667 7.33301 39.167 22 55.5s22 33.166 22 50.499c0 24 -13.667 50 -41 78
c-27.333 27.333 -41 60.666 -41 99.999s13.833 72.833 41.5 100.5s61.167 41.5 100.5 41.5s72.833 -13.833 100.5 -41.5s41.5 -61.167 41.5 -100.5z" />
    <glyph glyph-name="semicolon" unicode="&#x37e;" horiz-adv-x="400" 
d="M343 976c0 -39.333 -13.833 -72.833 -41.5 -100.5s-61.167 -41.5 -100.5 -41.5s-72.833 13.833 -100.5 41.5s-41.5 61.167 -41.5 100.5s13.833 72.833 41.5 100.5s61.167 41.5 100.5 41.5s72.833 -13.833 100.5 -41.5s41.5 -61.167 41.5 -100.5zM343 142
c0 -37.333 -3.5 -77.665 -10.5 -120.998s-17.333 -83.5 -31 -120.5s-30.5 -67.667 -50.5 -92s-43 -36.5 -69 -36.5c-24 0 -44.167 8.33301 -60.5 25s-24.5 37 -24.5 61c0 20.667 7.33301 39.167 22 55.5s22 33.166 22 50.499c0 24 -13.667 50 -41 78
c-27.333 27.333 -41 60.666 -41 99.999s13.833 72.833 41.5 100.5s61.167 41.5 100.5 41.5s72.833 -13.833 100.5 -41.5s41.5 -61.167 41.5 -100.5z" />
    <glyph glyph-name="less" unicode="&#x3c;" horiz-adv-x="1120" 
d="M889 1259c14.667 8.66699 31.998 13 51.998 13c14.667 0 28.334 -2.83301 41.001 -8.5s23.667 -13.167 33 -22.5s16.833 -20.333 22.5 -33s8.5 -26.334 8.5 -41.001c0 -38 -17.333 -68.333 -52 -91l-609 -364l609 -366c34.667 -22.667 52 -52.667 52 -90
c0 -30 -10.167 -54.833 -30.5 -74.5s-45.166 -29.5 -74.499 -29.5c-20 0 -37.333 4.33301 -52 13l-756 454c-36.667 22.667 -55 53.667 -55 93c0 36.667 18.333 67.334 55 92.001z" />
    <glyph glyph-name="equal" unicode="=" horiz-adv-x="1040" 
d="M864 835l-683 -0.000976562c-30 0 -54.833 10 -74.5 30s-29.5 45 -29.5 75s9.83301 54.833 29.5 74.5s44.5 29.5 74.5 29.5h683c28.667 0 53.167 -10.167 73.5 -30.5s30.5 -44.833 30.5 -73.5c0 -29.333 -10.167 -54.166 -30.5 -74.499s-44.833 -30.5 -73.5 -30.5z
M864 378.999l-683 -0.000976562c-30 0 -54.833 10 -74.5 30s-29.5 45 -29.5 75s9.83301 54.833 29.5 74.5s44.5 29.5 74.5 29.5h683c28.667 0 53.167 -10.167 73.5 -30.5s30.5 -44.833 30.5 -73.5c0 -29.333 -10.167 -54.166 -30.5 -74.499s-44.833 -30.5 -73.5 -30.5z" />
    <glyph glyph-name="greater" unicode="&#x3e;" horiz-adv-x="1120" 
d="M991 804c36.667 -24.667 54.998 -55.334 54.998 -92.001c0 -39.333 -18.333 -70.333 -55 -93l-756 -454c-14.667 -8.66699 -32 -13 -52 -13c-29.333 0 -54.166 9.83301 -74.499 29.5s-30.5 44.5 -30.5 74.5c0 37.333 17.333 67.333 52 90l609 366l-609 364
c-34.667 22.667 -52 53 -52 91c0 14.667 2.83301 28.334 8.5 41.001s13.167 23.667 22.5 33s20.333 16.833 33 22.5s26.334 8.5 41.001 8.5c20 0 37.333 -4.33301 52 -13z" />
    <glyph glyph-name="question" unicode="?" horiz-adv-x="1120" 
d="M287 1115c0 -14.667 -2.83301 -28.333 -8.5 -41s-13.167 -23.834 -22.5 -33.501s-20.333 -17.167 -33 -22.5s-26.334 -8 -41.001 -8c-30 0 -54.833 10 -74.5 30s-29.5 45 -29.5 75c0 66.667 12.833 129.334 38.5 188.001s60.5 110 104.5 154s95.333 78.667 154 104
s121 38 187 38s128.333 -13 187 -39s110 -61 154 -105s78.833 -95.333 104.5 -154s38.5 -120.667 38.5 -186c0 -132 -47.667 -246.667 -143 -344l-157 -145c-53.333 -53.333 -80 -111.666 -80 -174.999c0 -30 -9.83301 -54.833 -29.5 -74.5s-44.5 -29.5 -74.5 -29.5
s-55 9.83301 -75 29.5s-30 44.5 -30 74.5c0 120 47.667 227.667 143 323l157 146c53.333 55.333 80 120.333 80 195c0 37.333 -7.33301 72.666 -22 105.999s-34.5 62.5 -59.5 87.5s-54.167 44.833 -87.5 59.5s-68.666 22 -105.999 22c-38 0 -73.667 -7.16699 -107 -21.5
s-62.5 -33.833 -87.5 -58.5s-44.667 -53.667 -59 -87s-21.5 -69.333 -21.5 -108zM704 142.001c0 -39.333 -13.833 -72.833 -41.5 -100.5s-61.167 -41.5 -100.5 -41.5s-72.833 13.833 -100.5 41.5s-41.5 61.167 -41.5 100.5s13.833 72.833 41.5 100.5s61.167 41.5 100.5 41.5
s72.833 -13.833 100.5 -41.5s41.5 -61.167 41.5 -100.5z" />
    <glyph glyph-name="at" unicode="@" horiz-adv-x="2240" 
d="M1121 917c-49.333 0 -96 -9.33301 -140 -28s-82.167 -44 -114.5 -76s-58 -70 -77 -114s-28.5 -90.667 -28.5 -140s9.5 -96 28.5 -140s44.667 -82 77 -114s70.5 -57.333 114.5 -76s90.667 -28 140 -28s96 9.5 140 28.5s82 44.833 114 77.5s57.333 70.667 76 114
s28 89.333 28 138s-9.33301 94.667 -28 138s-44 81.333 -76 114s-70 58.5 -114 77.5s-90.667 28.5 -140 28.5zM1742 -92c-153.333 0 -239.331 68.999 -257.998 206.999c-106.667 -86 -227.667 -129 -363 -129c-158 0 -293 56 -405 168s-168 247 -168 405s56 293 168 405
s247 168 405 168s292.667 -56 404 -168c112.667 -112 169 -247 169 -405v-389c0 -32 16 -48 48 -48c136 0 204 145.667 204 437c0 116.667 -20.167 223 -60.5 319s-100.833 184 -181.5 264c-81.333 80.667 -170 141.334 -266 182.001s-201.667 61 -317 61
c-228.667 0 -423.667 -81 -585 -243c-160.667 -160 -241 -354.333 -241 -583s80.333 -423 241 -583c161.333 -162 356.333 -243 585 -243c121.333 0 234.666 23.333 339.999 70c16 9.33301 32.667 14 50 14c30 0 55.167 -10.5 75.5 -31.5s30.5 -46.5 30.5 -76.5
c0 -22 -6.5 -42.5 -19.5 -61.5s-29.167 -31.5 -48.5 -37.5c-132 -60 -274.667 -90 -428 -90c-286.667 0 -531.667 101.667 -735 305c-202.667 203.333 -304 448 -304 734c0 285.333 101.333 530 304 734c203.333 203.333 448.333 305 735 305
c285.333 0 529.666 -101.667 732.999 -305c203.333 -204 305 -448.667 305 -734c0 -434 -139 -651 -417 -651z" />
    <glyph glyph-name="A" unicode="A" horiz-adv-x="1440" 
d="M897 752l-174 449l-174 -449h348zM88 154l533.999 1374c21.333 48 55 72 101 72c47.333 0 81 -24 101 -72l536 -1379c5.33301 -13.333 8 -27.666 8 -42.999c0 -29.333 -10.333 -54.333 -31 -75s-45.667 -31 -75 -31s-54 10.333 -74 31c-10.667 10.667 -18.667 22 -24 34
l-185 475h-512l-186 -475c-5.33301 -12 -13.333 -23.333 -24 -34c-20.667 -20.667 -45.667 -31 -75 -31s-54.166 10.333 -74.499 31s-30.5 45.667 -30.5 75c0 16 3.66699 32 11 48z" />
    <glyph glyph-name="B" unicode="B" horiz-adv-x="1120" 
d="M286 1388l0.000976562 -405.001h203c28 0 54.167 5.33301 78.5 16s45.666 25.334 63.999 44.001s32.833 40.167 43.5 64.5s16 50.5 16 78.5c0 27.333 -5.33301 53.166 -16 77.499s-25.334 45.833 -44.001 64.5s-40.167 33.334 -64.5 44.001s-50.166 16 -77.499 16h-203z
M286.001 770.999v-559h280c38.667 0 75 7.33301 109 22s63.5 34.667 88.5 60s44.833 55 59.5 89s22 70.333 22 109c0 38 -7.33301 74 -22 108s-34.667 63.667 -60 89s-55 45.333 -89 60s-70 22 -108 22h-280zM489.001 1600c56.667 0 110.165 -10.832 160.498 -32.499
s94.333 -51.334 132 -89.001s67.334 -81.667 89.001 -132s32.5 -103.833 32.5 -160.5c0 -101.333 -31.333 -189.666 -94 -264.999c40.667 -24 76.334 -51.667 107.001 -83s56.5 -65.5 77.5 -102.5s36.833 -76 47.5 -117s16 -83.167 16 -126.5
c0 -67.333 -13 -130.833 -39 -190.5s-61.167 -111.834 -105.5 -156.501s-96.333 -80 -156 -106s-123.167 -39 -190.5 -39h-386c-14.667 0 -28.334 2.83301 -41.001 8.5s-23.834 13.167 -33.501 22.5s-17.334 20.5 -23.001 33.5s-8.5 26.833 -8.5 41.5v1388
c0 14.667 2.83301 28.5 8.5 41.5s13.334 24.167 23.001 33.5s20.834 16.833 33.501 22.5s26.334 8.5 41.001 8.5h309z" />
    <glyph glyph-name="C" unicode="C" horiz-adv-x="1480" 
d="M1308 360c14.667 0 28.3311 -2.83203 40.998 -8.49902s23.834 -13.167 33.501 -22.5s17.334 -20.5 23.001 -33.5s8.5 -26.833 8.5 -41.5c0 -28 -11 -53.333 -33 -76c-148.667 -118.667 -316.334 -178 -503.001 -178c-221.333 0 -410 78 -566 234s-234 344.667 -234 566
c0 220.667 78 409 234 565c156.667 156.667 345.334 235 566.001 235c189.333 0 360.333 -62.333 513 -187c18.667 -18 28 -42.333 28 -73c0 -15.333 -2.66699 -29.333 -8 -42s-12.833 -23.834 -22.5 -33.501s-21 -17.167 -34 -22.5s-26.833 -8 -41.5 -8
c-26 0 -50.333 10 -73 30c-50.667 40 -106.5 70.667 -167.5 92s-125.833 32 -194.5 32c-162.667 0 -301.667 -57.667 -417 -173c-114 -114 -171 -252.333 -171 -415c0 -163.333 57 -302 171 -416c114.667 -114.667 253.667 -172 417 -172c139.333 0 262 43 368 129
c17.333 12 38 18.333 62 19z" />
    <glyph glyph-name="D" unicode="D" horiz-adv-x="1360" 
d="M491 212c162 0 300.332 57.334 414.999 172.001c58 58 101.333 121.167 130 189.5s43 143.833 43 226.5c0 161.333 -57.667 299.666 -173 414.999s-253.666 173 -414.999 173h-202v-1176h202zM490.999 1600c220 0 408.333 -78.332 565 -234.999
c78.667 -78.667 137.5 -164.5 176.5 -257.5s58.5 -195.5 58.5 -307.5c0 -220.667 -78.333 -409.334 -235 -566.001c-156 -156 -344.333 -234 -565 -234h-308c-14.667 0 -28.5 2.83301 -41.5 8.5s-24.333 13.167 -34 22.5s-17.334 20.5 -23.001 33.5s-8.5 26.833 -8.5 41.5
v1388c0 14.667 2.83301 28.5 8.5 41.5s13.334 24.167 23.001 33.5s21 16.833 34 22.5s26.833 8.5 41.5 8.5h308z" />
    <glyph glyph-name="E" unicode="E" 
d="M1107 212c29.333 0 54.333 -10.334 75 -31.001s31 -45.667 31 -75s-10.333 -54.333 -31 -75s-45.667 -31 -75 -31h-925c-15.333 0 -29.333 2.66699 -42 8s-23.834 12.833 -33.501 22.5s-17.167 20.834 -22.5 33.501s-8 26.667 -8 42v1388c0 14.667 2.66699 28.5 8 41.5
s12.833 24.333 22.5 34s20.834 17.167 33.501 22.5s26.667 8 42 8h925c29.333 0 54.333 -10.333 75 -31s31 -45.667 31 -75s-10.333 -54.333 -31 -75s-45.667 -31 -75 -31h-819v-482h588c29.333 0 54.333 -10.333 75 -31s31 -45.667 31 -75s-10.333 -54.333 -31 -75
s-45.667 -31 -75 -31h-588v-482h819z" />
    <glyph glyph-name="F" unicode="F" 
d="M76 106l-0.000976562 1388c0 14.667 2.66699 28.5 8 41.5s12.833 24.333 22.5 34s20.834 17.167 33.501 22.5s26.667 8 42 8h925c29.333 0 54.333 -10.333 75 -31s31 -45.667 31 -75s-10.333 -54.333 -31 -75s-45.667 -31 -75 -31h-819v-482h588
c29.333 0 54.333 -10.333 75 -31s31 -45.667 31 -75s-10.333 -54.333 -31 -75s-45.667 -31 -75 -31h-588v-588c0 -29.333 -10.333 -54.333 -31 -75s-45.667 -31 -75 -31s-54.333 10.333 -75 31s-31 45.667 -31 75z" />
    <glyph glyph-name="G" unicode="G" horiz-adv-x="1500" 
d="M1414 254c0 -28 -11.0039 -53.332 -33.0039 -75.999c-148.667 -118.667 -316.334 -178 -503.001 -178c-221.333 0 -410 78 -566 234s-234 344.667 -234 566c0 220.667 78 409 234 565c156.667 156.667 345.334 235 566.001 235c189.333 0 360.333 -62.333 513 -187
c18.667 -17.333 28 -41.666 28 -72.999c0 -15.333 -2.66699 -29.333 -8 -42s-12.833 -23.834 -22.5 -33.501s-21 -17.167 -34 -22.5s-26.833 -8 -41.5 -8c-27.333 0 -51.666 10 -72.999 30c-50.667 40 -106.5 70.667 -167.5 92s-125.833 32 -194.5 32
c-162.667 0 -301.667 -57.667 -417 -173c-114 -114 -171 -252.333 -171 -415c0 -163.333 57 -302 171 -416c114.667 -114.667 253.667 -172 417 -172c120.667 0 228.667 31.667 324 95v310h-276c-30 0 -55.167 10.167 -75.5 30.5s-30.5 45.5 -30.5 75.5
c0 14.667 2.66699 28.5 8 41.5s12.833 24.333 22.5 34s20.834 17.167 33.501 22.5s26.667 8 42 8h383c14 0 27.333 -2.83301 40 -8.5s23.834 -13.334 33.501 -23.001s17.334 -21 23.001 -34s8.5 -26.5 8.5 -40.5v-469z" />
    <glyph glyph-name="H" unicode="H" 
d="M1213 106c0 -29.333 -10.333 -54.333 -31 -75s-45.667 -31 -75 -31s-54.333 10.333 -75 31s-31 45.667 -31 75v588h-713v-588c0 -29.333 -10.333 -54.333 -31 -75s-45.667 -31 -75 -31s-54.333 10.333 -75 31s-31 45.667 -31 75v1388c0 29.333 10.333 54.333 31 75
s45.667 31 75 31s54.333 -10.333 75 -31s31 -45.667 31 -75v-588h713v588c0 29.333 10.333 54.333 31 75s45.667 31 75 31s54.333 -10.333 75 -31s31 -45.667 31 -75v-1388z" />
    <glyph glyph-name="I" unicode="I" horiz-adv-x="480" 
d="M358 106c0 -29.333 -10.333 -54.333 -31 -75s-45.667 -31 -75 -31s-54.333 10.333 -75 31s-31 45.667 -31 75v1388c0 29.333 10.333 54.333 31 75s45.667 31 75 31s54.333 -10.333 75 -31s31 -45.667 31 -75v-1388z" />
    <glyph glyph-name="J" unicode="J" horiz-adv-x="1120" 
d="M286 492c0 -39.333 7.33301 -75.998 22 -109.998s34.5 -63.5 59.5 -88.5s54.5 -44.833 88.5 -59.5s70.667 -22 110 -22c38.667 0 75 7.33301 109 22s63.5 34.667 88.5 60s44.833 55 59.5 89s22 70.333 22 109v1002c0 29.333 10.333 54.333 31 75s45.667 31 75 31
s54.333 -10.333 75 -31s31 -45.667 31 -75v-1002c0 -67.333 -13 -130.833 -39 -190.5s-61.167 -111.834 -105.5 -156.501s-96.333 -80 -156 -106s-123.167 -39 -190.5 -39c-68 0 -131.833 13 -191.5 39s-111.667 61.5 -156 106.5s-79.5 97.167 -105.5 156.5
s-39 122.666 -39 189.999c0 29.333 10.333 54.333 31 75s45.667 31 75 31s54.333 -10.333 75 -31s31 -45.667 31 -75z" />
    <glyph glyph-name="K" unicode="K" horiz-adv-x="1200" 
d="M75 1494c0 29.333 10.333 54.333 31 75s45.667 31 75 31s54.333 -10.333 75 -31s31 -45.667 31 -75v-592l665 665c22 22 47.667 33 77 33c14.667 0 28.5 -2.66699 41.5 -8s24.333 -12.833 34 -22.5s17.167 -21 22.5 -34s8 -26.833 8 -41.5
c0 -29.333 -10.333 -54.333 -31 -75l-524 -525l535 -725c13.333 -18.667 20 -38.667 20 -60c0 -14 -2.66699 -27.667 -8 -41s-12.666 -25 -21.999 -35s-20.333 -18 -33 -24s-26.334 -9 -41.001 -9c-39.333 0 -69 15 -89 45l-514 697l-141 -141v-495
c0 -29.333 -10.333 -54.333 -31 -75s-45.667 -31 -75 -31s-54.333 10.333 -75 31s-31 45.667 -31 75v1388z" />
    <glyph glyph-name="L" unicode="L" horiz-adv-x="1200" 
d="M75 1494c0 29.333 10.334 54.332 31.001 74.999s45.667 31 75 31s54.333 -10.333 75 -31s31 -45.667 31 -75v-1282h742c29.333 0 54.333 -10.333 75 -31s31 -45.667 31 -75s-10.333 -54.333 -31 -75s-45.667 -31 -75 -31h-848c-15.333 0 -29.333 2.66699 -42 8
s-23.834 12.833 -33.501 22.5s-17.167 20.834 -22.5 33.501s-8 26.667 -8 42v1388z" />
    <glyph glyph-name="M" unicode="M" horiz-adv-x="1760" 
d="M80 106l0.000976562 1388c0 14.667 2.66699 28.5 8 41.5s12.833 24.333 22.5 34s20.834 17.167 33.501 22.5s26.667 8 42 8c41.333 0 72.666 -19 93.999 -57l600 -1199l600 1199c24 38 55.333 57 94 57c14.667 0 28.5 -2.66699 41.5 -8s24.333 -12.833 34 -22.5
s17.167 -21 22.5 -34s8 -26.833 8 -41.5v-1388c0 -29.333 -10.333 -54.333 -31 -75s-45.667 -31 -75 -31s-54.333 10.333 -75 31s-31 45.667 -31 75v938l-496 -991c-20.667 -35.333 -51.334 -53 -92.001 -53c-44 -0 -76.333 21.333 -97 64l-491 980v-938
c0 -29.333 -10.333 -54.333 -31 -75s-45.667 -31 -75 -31s-54.333 10.333 -75 31s-31 45.667 -31 75z" />
    <glyph glyph-name="N" unicode="N" horiz-adv-x="1440" 
d="M77 106v1388c0 14.667 2.66699 28.5 8 41.5s12.833 24.333 22.5 34s20.834 17.167 33.501 22.5s26.667 8 42 8c31.333 0 58.666 -13 81.999 -39l892 -1147v1080c0 29.333 10.333 54.333 31 75s45.667 31 75 31s54.333 -10.333 75 -31s31 -45.667 31 -75v-1388
c0 -15.333 -2.66699 -29.333 -8 -42s-12.833 -23.834 -22.5 -33.501s-21 -17.167 -34 -22.5s-26.833 -8 -41.5 -8c-31.333 -0 -58.333 12.333 -81 37l-893 1147v-1078c0 -29.333 -10.333 -54.333 -31 -75s-45.667 -31 -75 -31s-54.333 10.333 -75 31s-31 45.667 -31 75z" />
    <glyph glyph-name="O" unicode="O" horiz-adv-x="1760" 
d="M880 1388c-82.667 0 -158.169 -14.333 -226.502 -43s-131.5 -72 -189.5 -130s-101.167 -121 -129.5 -189s-42.5 -143.333 -42.5 -226c0 -162.667 57.333 -301.334 172 -416.001s253.334 -172 416.001 -172s301.334 57.333 416.001 172s172 253.334 172 416.001
c0 162 -57.333 300.333 -172 415c-115.333 115.333 -254 173 -416 173zM1680 800c0 -220.667 -78.334 -409.334 -235.001 -566.001c-156 -156 -344.333 -234 -565 -234c-221.333 0 -410 78 -566 234s-234 344.667 -234 566c0 220.667 78 409 234 565
c156.667 156.667 345.334 235 566.001 235c220 0 408.333 -78.333 565 -235c78.667 -78.667 137.5 -164.667 176.5 -258s58.5 -195.666 58.5 -306.999z" />
    <glyph glyph-name="P" unicode="P" horiz-adv-x="1080" 
d="M286 1388l0.00195312 -636.004h202c43.333 0 84.166 8.33301 122.499 25s72 39.334 101 68.001s52 62.334 69 101.001s25.5 80 25.5 124c0 44.667 -8.5 86.334 -25.5 125.001s-40 72.334 -69 101.001s-62.833 51.167 -101.5 67.5s-79.334 24.5 -122.001 24.5h-202z
M74.002 105.996l-0.000976562 1388c0 14.667 2.66699 28.5 8 41.5s12.833 24.333 22.5 34s20.834 17.167 33.501 22.5s26.667 8 42 8h308c48 0 94.5 -6.33301 139.5 -19s87.167 -30.667 126.5 -54s75.333 -51.166 108 -83.499s60.5 -68.166 83.5 -107.499
s41 -81.5 54 -126.5s19.5 -91.5 19.5 -139.5c0 -145.333 -52.333 -270.333 -157 -375c-103.333 -103.333 -228 -155 -374 -155h-202v-434c0 -29.333 -10.333 -54.333 -31 -75s-45.667 -31 -75 -31s-54.333 10.333 -75 31s-31 45.667 -31 75z" />
    <glyph glyph-name="Q" unicode="Q" horiz-adv-x="1760" 
d="M1366 164c-70.667 -56 -146.001 -97.332 -226.001 -123.999s-166.667 -40 -260 -40c-221.333 0 -410 78 -566 234s-234 344.667 -234 566c0 220.667 78 409 234 565c156.667 156.667 345.334 235 566.001 235c220 0 408.333 -78.333 565 -235
c78.667 -78.667 137.5 -164.5 176.5 -257.5s58.5 -195.5 58.5 -307.5c0 -93.333 -13.333 -180 -40 -260s-68 -155.333 -124 -226l134 -134c20 -22 30 -46.667 30 -74c0 -15.333 -2.66699 -29.333 -8 -42s-12.833 -23.834 -22.5 -33.501s-21 -17.167 -34 -22.5
s-26.833 -8 -41.5 -8c-30.667 -0 -56 10.333 -76 31zM1074 455.001c-20 23.333 -30.002 48.334 -30.002 75.001c0 14.667 2.66699 28.5 8 41.5s12.833 24.333 22.5 34s20.834 17.167 33.501 22.5s26.667 8 42 8c29.333 0 54.333 -10.333 75 -31l140 -139
c68.667 96.667 103 208 103 334c0 162 -57.333 300.333 -172 415c-115.333 115.333 -254 173 -416 173c-82.667 0 -158.167 -14.333 -226.5 -43s-131.5 -72 -189.5 -130s-101.167 -121 -129.5 -189s-42.5 -143.333 -42.5 -226c0 -162.667 57.333 -301.334 172 -416.001
s253.334 -172 416.001 -172c126 0 237.667 34.333 335 103z" />
    <glyph glyph-name="R" unicode="R" horiz-adv-x="1200" 
d="M287 1388v-559.002h280c38.667 0 75 7.33301 109 22s63.5 34.834 88.5 60.501s44.833 55.334 59.5 89.001s22 69.5 22 107.5c0 38.667 -7.33301 75 -22 109s-34.667 63.667 -60 89s-55 45.333 -89 60s-70 22 -108 22h-280zM75 105.998l-0.00195312 1388
c0 14.667 2.66699 28.5 8 41.5s12.833 24.333 22.5 34s20.834 17.167 33.501 22.5s26.667 8 42 8h386c67.333 0 130.833 -13 190.5 -39s111.667 -61.333 156 -106s79.5 -96.834 105.5 -156.501s39 -123.167 39 -190.5c0 -44 -5.5 -86.833 -16.5 -128.5s-27.333 -81 -49 -118
s-48.667 -71.333 -81 -103s-69.833 -59.5 -112.5 -83.5l319 -511c11.333 -18.667 17 -38 17 -58c0 -15.333 -2.66699 -29.333 -8 -42s-12.833 -23.834 -22.5 -33.501s-21 -17.167 -34 -22.5s-26.833 -8 -41.5 -8c-37.333 0 -67.666 17.333 -90.999 52l-353 565h-298v-511
c0 -29.333 -10.333 -54.333 -31 -75s-45.667 -31 -75 -31s-54.333 10.333 -75 31s-31 45.667 -31 75z" />
    <glyph glyph-name="S" unicode="S" horiz-adv-x="1060" 
d="M283 890c-49.333 45.333 -83.834 91.8359 -103.501 139.503s-29.5 98.167 -29.5 151.5c0 65.333 12.333 124.5 37 177.5s61 100.167 109 141.5h-1c76.667 66.667 166.667 100 270 100c33.333 0 66.666 -4.16699 99.999 -12.5s65.5 -21 96.5 -38s60 -38.167 87 -63.5
s51.167 -55 72.5 -89c10 -17.333 15 -36.333 15 -57c0 -15.333 -2.66699 -29.333 -8 -42s-12.833 -23.834 -22.5 -33.501s-21 -17.167 -34 -22.5s-26.833 -8 -41.5 -8c-13.333 0 -25.166 2 -35.499 6s-19.666 9.66699 -27.999 17s-16.333 15.833 -24 25.5
s-15.834 20.834 -24.501 33.501c-16 23.333 -37.833 40.833 -65.5 52.5s-57.5 17.5 -89.5 17.5c-25.333 0 -50 -5.16699 -74 -15.5s-45.333 -24.5 -64 -42.5s-33.834 -39.333 -45.501 -64s-17.5 -51.334 -17.5 -80.001c0 -51.333 14.167 -91.833 42.5 -121.5
s77.166 -54.5 146.499 -74.5c117.333 -33.333 209.333 -79.333 276 -138s112 -116.334 136 -173.001s36 -116.334 36 -179.001c0 -156 -57.667 -282.667 -173 -380h1c-92.667 -78.667 -198 -118 -316 -118c-39.333 -0 -78.666 4.83301 -117.999 14.5
s-77.166 23.834 -113.499 42.501s-70.333 42 -102 70s-59.167 59.667 -82.5 95c-14 18 -21 39.333 -21 64c0 14.667 2.66699 28.5 8 41.5s12.833 24.333 22.5 34s20.834 17.167 33.501 22.5s26.667 8 42 8c39.333 0 69 -16.333 89 -49c28 -43.333 63 -76 105 -98
s87.333 -33 136 -33c38 0 73.833 7.5 107.5 22.5s63 35.167 88 60.5s44.833 55.166 59.5 89.499s22 70.833 22 109.5c0 36.667 -6.83301 71.167 -20.5 103.5s-40 64.333 -79 96s-100.833 60.167 -185.5 85.5c-96.667 28.667 -169.667 65.667 -219 111z" />
    <glyph glyph-name="T" unicode="T" horiz-adv-x="1360" 
d="M1185 1388h-395v-1282c0 -29.333 -10.333 -54.333 -31 -75s-45.667 -31 -75 -31s-54.333 10.333 -75 31s-31 45.667 -31 75v1282h-395c-29.333 0 -54.333 10.333 -75 31s-31 45.667 -31 75s10.333 54.333 31 75s45.667 31 75 31h1002c29.333 0 54.333 -10.333 75 -31
s31 -45.667 31 -75s-10.333 -54.333 -31 -75s-45.667 -31 -75 -31z" />
    <glyph glyph-name="U" unicode="U" 
d="M288 1494l0.00390625 -925.002c0 -48.667 9.33301 -94.667 28 -138s44 -81.166 76 -113.499s69.667 -58 113 -77s89.666 -28.5 138.999 -28.5s95.666 9.33301 138.999 28s81.166 44.334 113.499 77.001s57.833 70.5 76.5 113.5s28 89.167 28 138.5v925
c0 29.333 10.333 54.333 31 75s45.667 31 75 31s54.333 -10.333 75 -31s31 -45.667 31 -75v-925c0 -52 -6.83301 -102 -20.5 -150s-32.834 -93.167 -57.501 -135.5s-54.334 -80.833 -89.001 -115.5s-73.167 -64.5 -115.5 -89.5s-87.666 -44.333 -135.999 -58
s-98.5 -20.5 -150.5 -20.5c-157.333 0 -291 55.667 -401 167c-111.333 111.333 -167 245.333 -167 402v925c0 29.333 10.333 54.333 31 75s45.667 31 75 31s54.333 -10.333 75 -31s31 -45.667 31 -75z" />
    <glyph glyph-name="V" unicode="V" horiz-adv-x="1440" 
d="M723 0c-46.667 0 -79.002 22.333 -97.002 67l-537 1373c-8 20.667 -12 38.667 -12 54c0 14.667 2.66699 28.5 8 41.5s12.833 24.333 22.5 34s20.834 17.167 33.501 22.5s26.667 8 42 8c46.667 0 79.334 -21 98.001 -63l442 -1137l442 1137c16 42 48.667 63 98 63
c14.667 0 28.5 -2.66699 41.5 -8s24.333 -12.833 34 -22.5s17.167 -21 22.5 -34s8 -26.833 8 -41.5c0 -17.333 -4 -35.333 -12 -54l-537 -1373c-18 -44.667 -50.333 -67 -97 -67z" />
    <glyph glyph-name="W" unicode="W" horiz-adv-x="1920" 
d="M288 1529l285.003 -1027l284 1026c5.33301 20.667 17.5 37.834 36.5 51.501s40.833 20.5 65.5 20.5c21.333 0 41.5 -6.16699 60.5 -18.5s32.167 -29.833 39.5 -52.5l285 -1027l286 1027c4.66699 14.667 13 28 25 40c20.667 20.667 45.667 31 75 31
s54.166 -10.333 74.499 -31s30.5 -45.667 30.5 -75c-0.666992 -13.333 -3 -27.333 -7 -42l-377 -1366c-9.33301 -26 -23.333 -46.833 -42 -62.5s-40.334 -23.5 -65.001 -23.5c-30 0 -54.667 10.667 -74 32c-14 14.667 -24.667 32 -32 52l-279 1011l-279 -1009
c-9.33301 -26 -23.333 -46.833 -42 -62.5s-40.334 -23.5 -65.001 -23.5c-30 0 -55 10.667 -75 32c-13.333 13.333 -23.666 30.666 -30.999 51.999l-379 1369c-4 15.333 -6 29 -6 41c0 29.333 10.333 54.333 31 75s45.667 31 75 31s54.333 -10.333 75 -31
c11.333 -12 19.666 -25.333 24.999 -40z" />
    <glyph glyph-name="X" unicode="X" horiz-adv-x="1440" 
d="M257 31c-20.667 -20.667 -45.667 -31 -75 -31s-54.333 10.167 -75 30.5s-31 45.166 -31 74.499c0 25.333 7.66699 47.666 23 66.999l489 628l-492 632c-12.667 18 -19 38.667 -19 62c0 29.333 10.333 54.333 31 75s45.667 31 75 31c32 0 57 -10.333 75 -31l465 -596
l465 596c18.667 20.667 43.667 31 75 31c29.333 0 54.166 -10.333 74.499 -31s30.5 -45.667 30.5 -75c0 -23.333 -6.33301 -44 -19 -62l-491 -632l489 -628c14.667 -19.333 22 -41.666 22 -66.999c0 -29.333 -10.167 -54.166 -30.5 -74.499s-45.166 -30.5 -74.499 -30.5
c-35.333 0 -63 12.667 -83 38l-458 589z" />
    <glyph glyph-name="Y" unicode="Y" 
d="M268 1556l376.001 -563l376 563c20.667 29.333 49.667 44 87 44c29.333 0 54.166 -10.333 74.499 -31s30.5 -45.667 30.5 -75c0 -24 -5.33301 -44 -16 -60l-446 -666v-662c0 -29.333 -10.333 -54.333 -31 -75s-45.667 -31 -75 -31c-28.667 -0 -53.5 10.333 -74.5 31
s-31.5 45.667 -31.5 75v662l-445 666c-11.333 17.333 -17 37.333 -17 60c0 29.333 10.333 54.333 31 75s45.667 31 75 31c37.333 0 66 -14.667 86 -44z" />
    <glyph glyph-name="Z" unicode="Z" horiz-adv-x="1440" 
d="M183 1600l1080 -0.000976562c14.667 0 28.5 -2.66699 41.5 -8s24.333 -12.833 34 -22.5s17.167 -21 22.5 -34s8 -26.833 8 -41.5c0 -22 -6.66699 -42.667 -20 -62l-949 -1220h863c30 -0.666992 55.167 -11.334 75.5 -32.001s30.5 -45.667 30.5 -75
s-10.167 -54.166 -30.5 -74.499s-45.166 -30.5 -74.499 -30.5h-1081c-15.333 0 -29.333 2.66699 -42 8s-23.834 12.833 -33.501 22.5s-17.167 20.834 -22.5 33.501s-8 26.667 -8 42c0.666992 25.333 8 47.333 22 66l947 1216h-863c-28.667 0 -53.5 10.333 -74.5 31
s-31.5 45.667 -31.5 75s10.5 54.333 31.5 75s45.833 31 74.5 31z" />
    <glyph glyph-name="bracketleft" unicode="[" horiz-adv-x="640" 
d="M494 1602c30.667 0 56.167 -10.5 76.5 -31.5s30.5 -46.5 30.5 -76.5c0 -30.667 -10.167 -56 -30.5 -76s-45.833 -30 -76.5 -30h-205v-1654h205c30.667 0 56.167 -10 76.5 -30s30.5 -45.333 30.5 -76c0 -31.333 -10.167 -57.166 -30.5 -77.499s-45.833 -30.5 -76.5 -30.5
h-311c-31.333 0 -57 10.167 -77 30.5s-30 46.166 -30 77.499v1866c0 30 10 55.5 30 76.5s45.667 31.5 77 31.5h311z" />
    <glyph glyph-name="backslash" unicode="\" horiz-adv-x="960" 
d="M883 -12c6 -12.667 9 -27.002 9 -43.002c0 -14.667 -2.66699 -28.5 -8 -41.5s-12.833 -24.5 -22.5 -34.5s-21 -17.667 -34 -23s-26.833 -8 -41.5 -8c-18.667 0 -37.5 5.33301 -56.5 16s-32.833 26.334 -41.5 47.001l-620 1549c-5.33301 14.667 -8 29.334 -8 44.001
c0 30 10 55.333 30 76s45.333 31 76 31c48 0 80.667 -21 98 -63z" />
    <glyph glyph-name="bracketright" unicode="]" horiz-adv-x="640" 
d="M494 1602c30.667 0 56.167 -10.5 76.5 -31.5s30.5 -46.5 30.5 -76.5v-1866c0 -31.333 -10.167 -57.166 -30.5 -77.499s-45.833 -30.5 -76.5 -30.5h-311c-31.333 0 -57 10.167 -77 30.5s-30 46.166 -30 77.499c0 30.667 10 56 30 76s45.667 30 77 30h204v1654h-204
c-31.333 0 -57 10 -77 30s-30 45.333 -30 76c0 30 10 55.5 30 76.5s45.667 31.5 77 31.5h311z" />
    <glyph glyph-name="asciicircum" unicode="^" horiz-adv-x="960" 
d="M484 1304l-219.999 -328.998c-21.333 -27.333 -49.333 -41 -84 -41c-30 0 -54.833 10 -74.5 30s-29.5 45 -29.5 75c0 22 4.66699 40 14 54l308 462c19.333 29.333 48 44 86 44c35.333 0 63.666 -14.667 84.999 -44l308 -462c10 -14.667 15 -32.667 15 -54
c0 -14.667 -2.66699 -28.334 -8 -41.001s-12.833 -23.834 -22.5 -33.501s-20.834 -17.167 -33.501 -22.5s-26 -8 -40 -8c-35.333 0 -63.666 13.667 -84.999 41z" />
    <glyph glyph-name="underscore" unicode="_" horiz-adv-x="960" 
d="M976 -209h-960c-29.333 0 -54.166 10.167 -74.499 30.5s-30.5 44.833 -30.5 73.5c0 29.333 10.167 54.166 30.5 74.499s45.166 30.5 74.499 30.5h960c28.667 0 53.167 -10.167 73.5 -30.5s30.5 -45.166 30.5 -74.499c0 -28.667 -10.167 -53.167 -30.5 -73.5
s-44.833 -30.5 -73.5 -30.5z" />
    <glyph glyph-name="grave" unicode="`" horiz-adv-x="560" 
d="M71 1494c0 29.333 9.83301 54.168 29.5 74.501s44.5 30.5 74.5 30.5c28 0 52.667 -10.333 74 -31l200 -199c17.333 -18.667 26 -42.334 26 -71.001c0 -30 -9.83301 -54.833 -29.5 -74.5s-44.5 -29.5 -74.5 -29.5c-29.333 0 -53.333 9.33301 -72 28l-200 199
c-18.667 18.667 -28 43 -28 73z" />
    <glyph glyph-name="a" unicode="a" 
d="M640 911c-49.333 0 -95.333 -9.3291 -138 -27.9961s-79.667 -43.834 -111 -75.501s-56.166 -68.834 -74.499 -111.501s-27.5 -88 -27.5 -136s9.16699 -93.333 27.5 -136s43.166 -79.834 74.499 -111.501s68.333 -56.834 111 -75.501s88.667 -28 138 -28
c48.667 0 94.334 9.33301 137.001 28s79.834 44 111.501 76s56.667 69.167 75 111.5s27.5 87.5 27.5 135.5s-9.16699 93.167 -27.5 135.5s-43.333 79.5 -75 111.5s-68.834 57.333 -111.501 76s-88.334 28 -137.001 28zM991 104.004v20c-50 -40 -104.333 -70.667 -163 -92
s-121.334 -32 -188.001 -32c-154.667 0 -286.667 54.667 -396 164s-164 241.333 -164 396s54.667 286.667 164 396s241.333 164 396 164c153.333 0 285.333 -54.667 396 -164c109.333 -109.333 164 -241.333 164 -396v-456c0 -28.667 -10.167 -53.167 -30.5 -73.5
s-44.833 -30.5 -73.5 -30.5c-29.333 0 -54.166 10.167 -74.499 30.5s-30.5 44.833 -30.5 73.5z" />
    <glyph glyph-name="b" unicode="b" 
d="M640 209c48.667 0 94.334 9.33691 137.001 28.0039s79.834 44 111.501 76s56.667 69.167 75 111.5s27.5 87.5 27.5 135.5s-9.16699 93.167 -27.5 135.5s-43.333 79.5 -75 111.5s-68.834 57.333 -111.501 76s-88.334 28 -137.001 28c-49.333 0 -95.333 -9.33301 -138 -28
s-79.667 -43.834 -111 -75.501s-56.166 -68.834 -74.499 -111.501s-27.5 -88 -27.5 -136s9.16699 -93.333 27.5 -136s43.166 -79.834 74.499 -111.501s68.333 -56.834 111 -75.501s88.667 -28 138 -28zM289 996.004c99.333 82.667 216.334 123.999 351.001 123.999
c153.333 0 285.333 -54.667 396 -164c54.667 -54 95.667 -114.167 123 -180.5s41 -138.166 41 -215.499c0 -156 -54.667 -288 -164 -396c-110.667 -109.333 -242.667 -164 -396 -164c-154.667 0 -286.667 54.667 -396 164s-164 241.333 -164 396v936
c0 30 9.83301 54.833 29.5 74.5s44.5 29.5 74.5 29.5c29.333 0 54.166 -9.83301 74.499 -29.5s30.5 -44.5 30.5 -74.5v-500z" />
    <glyph glyph-name="c" unicode="c" horiz-adv-x="1120" 
d="M932 317c30 0 54.833 -9.83105 74.5 -29.498s29.5 -44.5 29.5 -74.5c0 -29.333 -11 -55 -33 -77c-103.333 -90.667 -225 -136 -365 -136c-154.667 0 -286.667 54.667 -396 164s-164 241.333 -164 396s54.667 286.667 164 396s241.333 164 396 164
c140.667 0 262.334 -45.333 365.001 -136c24 -21.333 36 -47.666 36 -78.999c0 -30 -9.83301 -55 -29.5 -75s-44.5 -30 -74.5 -30c-25.333 0 -48 8 -68 24c-34 28.667 -69.667 50.334 -107 65.001s-78 22 -122 22c-48.667 0 -94.334 -9.16699 -137.001 -27.5
s-80 -43.333 -112 -75s-57.167 -68.834 -75.5 -111.501s-27.5 -88.334 -27.5 -137.001s9.16699 -94.334 27.5 -137.001s43.5 -79.834 75.5 -111.501s69.333 -56.667 112 -75s88.334 -27.5 137.001 -27.5c44 0 84.667 7.16699 122 21.5s72.666 35.833 105.999 64.5
c18.667 14 40.667 21.333 66 22z" />
    <glyph glyph-name="d" unicode="d" 
d="M991 560c0 48 -9.16699 93.1709 -27.5 135.504s-43.333 79.5 -75 111.5s-68.834 57.333 -111.501 76s-88.334 28 -137.001 28c-49.333 0 -95.333 -9.33301 -138 -28s-79.667 -43.834 -111 -75.501s-56.166 -68.834 -74.499 -111.501s-27.5 -88 -27.5 -136
s9.16699 -93.333 27.5 -136s43.166 -79.834 74.499 -111.501s68.333 -56.834 111 -75.501s88.667 -28 138 -28c48.667 0 94.334 9.33301 137.001 28s79.834 44 111.501 76s56.667 69.167 75 111.5s27.5 87.5 27.5 135.5zM640 1120c132.667 0 249.668 -41 351.001 -123v499
c0 30 9.83301 54.833 29.5 74.5s44.5 29.5 74.5 29.5c29.333 0 54.166 -9.83301 74.499 -29.5s30.5 -44.5 30.5 -74.5v-936c0 -156 -54.667 -288 -164 -396c-110.667 -109.333 -242.667 -164 -396 -164c-154.667 0 -286.667 54.667 -396 164s-164 241.333 -164 396
s54.667 286.667 164 396s241.333 164 396 164z" />
    <glyph glyph-name="e" unicode="e" 
d="M977 664c-11.333 36.667 -28.166 70.167 -50.499 100.5s-48.333 56.333 -78 78s-62.334 38.5 -98.001 50.5s-72.5 18 -110.5 18s-75 -6 -111 -18s-69 -28.833 -99 -50.5s-56 -47.667 -78 -78s-38.333 -63.833 -49 -100.5h674zM932 315
c30 0 54.8301 -9.83496 74.4971 -29.502s29.5 -44.5 29.5 -74.5c0 -29.333 -10 -54.333 -30 -75c-103.333 -90.667 -225.333 -136 -366 -136c-154.667 0 -286.667 54.667 -396 164s-164 241.333 -164 396s54.667 286.667 164 396s241.333 164 396 164
c153.333 0 285.333 -54.667 396 -164c54.667 -54 95.667 -114.167 123 -180.5s41 -138.166 41 -215.499c0 -30 -10.167 -54.833 -30.5 -74.5s-45.166 -29.5 -74.499 -29.5h-792c11.333 -36.667 28 -70.167 50 -100.5s47.833 -56.333 77.5 -78s62.334 -38.5 98.001 -50.5
s72.834 -18 111.501 -18c44 0 84.333 6.66699 121 20s70.667 33.333 102 60c20 16.667 43 25.334 69 26.001z" />
    <glyph glyph-name="f" unicode="f" horiz-adv-x="800" 
d="M701 1390c-184 0 -276 -91.6689 -276 -275.002v-52h201c28.667 0 53.167 -10.167 73.5 -30.5s30.5 -44.833 30.5 -73.5c0 -29.333 -10.167 -54.166 -30.5 -74.499s-44.833 -30.5 -73.5 -30.5h-201v-750c0 -14 -2.66699 -27.333 -8 -40s-12.666 -23.834 -21.999 -33.501
s-20.333 -17.167 -33 -22.5s-26.334 -8 -41.001 -8s-28.334 2.66699 -41.001 8s-23.667 12.833 -33 22.5s-16.666 20.834 -21.999 33.501s-8 26 -8 40v750h-48c-30 0 -54.833 10 -74.5 30s-29.5 45 -29.5 75s9.83301 54.833 29.5 74.5s44.5 29.5 74.5 29.5h48v52
c0 322.667 161.333 484 484 484c28.667 0 53.167 -10.167 73.5 -30.5s30.5 -44.833 30.5 -73.5c0 -29.333 -10.167 -54.166 -30.5 -74.499s-44.833 -30.5 -73.5 -30.5z" />
    <glyph glyph-name="g" unicode="g" 
d="M640 911c-49.333 0 -95.333 -9.3291 -138 -27.9961s-79.667 -43.834 -111 -75.501s-56.166 -68.834 -74.499 -111.501s-27.5 -88 -27.5 -136s9.16699 -93.333 27.5 -136s43.166 -79.834 74.499 -111.501s68.333 -56.834 111 -75.501s88.667 -28 138 -28
c48.667 0 94.334 9.33301 137.001 28s79.834 44 111.501 76s56.667 69.167 75 111.5s27.5 87.5 27.5 135.5s-9.16699 93.167 -27.5 135.5s-43.333 79.5 -75 111.5s-68.834 57.333 -111.501 76s-88.334 28 -137.001 28zM991 123.004c-100 -82 -217 -122.997 -351 -122.997
c-154.667 0 -286.667 54.667 -396 164s-164 241.333 -164 396s54.667 286.667 164 396s241.333 164 396 164c153.333 0 285.333 -54.667 396 -164c109.333 -109.333 164 -241.333 164 -396v-556c0 -48 -7.33301 -93.333 -22 -136s-35 -81.834 -61 -117.501
s-56.667 -67.834 -92 -96.501s-73.5 -52.834 -114.5 -72.501s-83.833 -34.834 -128.5 -45.501s-89.334 -16 -134.001 -16c-53.333 0 -105.666 6.83301 -156.999 20.5s-100 33.834 -146 60.501s-88.167 59.667 -126.5 99s-70.833 83.333 -97.5 132
c-10.667 15.333 -16 34 -16 56c0 30 10 54.833 30 74.5s45 29.5 75 29.5c20 0 36.5 -4.66699 49.5 -14s30.833 -30 53.5 -62s42.667 -56.333 60 -73c76 -76 167.667 -114 275 -114c108 0 199.333 37.333 274 112c46 56 69 110.333 69 163v119z" />
    <glyph glyph-name="h" unicode="h" horiz-adv-x="1200" 
d="M288 105c0 -29.333 -10.167 -54.166 -30.5 -74.499s-45.166 -30.5 -74.499 -30.5c-28.667 0 -53.167 10.167 -73.5 30.5s-30.5 45.166 -30.5 74.499v1390c0 29.333 10.167 54.166 30.5 74.499s44.833 30.5 73.5 30.5s53.167 -10.167 73.5 -30.5
s30.833 -45.166 31.5 -74.499v-480c88.667 68.667 193 103 313 103c70 0 136.5 -13.667 199.5 -41s118.5 -64.5 166.5 -111.5s86 -102.333 114 -166s42 -131.5 42 -203.5v-491c-0.666992 -29.333 -11.167 -54.166 -31.5 -74.499s-44.833 -30.5 -73.5 -30.5
s-53.167 10.167 -73.5 30.5s-30.5 45.166 -30.5 74.499v491c0 42.667 -8.33301 83 -25 121s-39.167 71.167 -67.5 99.5s-61.5 50.833 -99.5 67.5s-78.333 25 -121 25c-43.333 0 -83.833 -8.16699 -121.5 -24.5s-70.834 -38.833 -99.501 -67.5s-51.167 -62 -67.5 -100
s-24.5 -78.333 -24.5 -121v-491z" />
    <glyph glyph-name="i" unicode="i" horiz-adv-x="480" 
d="M363 1319c0 -34 -12 -63 -36 -87s-53 -36 -87 -36s-63 12 -87 36s-36 53 -36 87s12 63 36 87s53 36 87 36s63 -12 87 -36s36 -53 36 -87zM136 105v910c0 29.333 10.167 54.166 30.5 74.499s44.833 30.5 73.5 30.5s53.167 -10.167 73.5 -30.5s30.833 -45.166 31.5 -74.499
v-910c-0.666992 -29.333 -11.167 -54.166 -31.5 -74.499s-44.833 -30.5 -73.5 -30.5s-53.167 10.167 -73.5 30.5s-30.5 45.166 -30.5 74.499z" />
    <glyph glyph-name="j" unicode="j" horiz-adv-x="656" 
d="M602 1319c0 -34 -12 -63 -36 -87s-53 -36 -87 -36s-63 12 -87 36s-36 53 -36 87s12 63 36 87s53 36 87 36s63 -12 87 -36s36 -53 36 -87zM583 1015v-1010c0 -66 -12.833 -128.333 -38.5 -187s-60.5 -110 -104.5 -154s-95.333 -78.833 -154 -104.5s-121 -38.5 -187 -38.5
c-30 0 -54.833 10 -74.5 30s-29.5 45 -29.5 75s9.83301 54.833 29.5 74.5s44.5 29.5 74.5 29.5c38 0 73.667 7.16699 107 21.5s62.5 34 87.5 59s44.833 54.167 59.5 87.5s22 69 22 107v1010c0 29.333 10.167 54.166 30.5 74.499s44.833 30.5 73.5 30.5
s53.167 -10.167 73.5 -30.5s30.5 -45.166 30.5 -74.499z" />
    <glyph glyph-name="k" unicode="k" horiz-adv-x="1120" 
d="M78 105l-0.000976562 1390c0 29.333 10.167 54.166 30.5 74.499s45.166 30.5 74.499 30.5c28.667 0 53.167 -10.167 73.5 -30.5s30.5 -45.166 30.5 -74.499v-780l598 389c16.667 10.667 35.334 16 56.001 16c14.667 0 28.334 -2.66699 41.001 -8s23.667 -12.833 33 -22.5
s16.833 -20.834 22.5 -33.501s8.5 -26 8.5 -40c0 -37.333 -13.333 -65 -40 -83l-419 -272l430 -484c19.333 -21.333 29 -45.666 29 -72.999c0 -14 -2.83301 -27.333 -8.5 -40s-13.167 -23.834 -22.5 -33.501s-20.333 -17.167 -33 -22.5s-26.334 -8 -41.001 -8
c-28 0 -51.333 9 -70 27l-462 519l-122 -80v-361c0 -28.667 -10.167 -53.334 -30.5 -74.001s-44.833 -31 -73.5 -31c-29.333 0 -54.166 10.333 -74.499 31s-30.5 45.334 -30.5 74.001z" />
    <glyph glyph-name="l" unicode="l" horiz-adv-x="480" 
d="M70 104v1391c0 29.333 9.83301 54.166 29.5 74.499s44.5 30.5 74.5 30.5s54.833 -10.167 74.5 -30.5s29.5 -45.166 29.5 -74.499v-1286h48c28.667 0 53.167 -10.167 73.5 -30.5s30.5 -45.166 30.5 -74.499c0 -28.667 -10.167 -53.167 -30.5 -73.5
s-44.833 -30.5 -73.5 -30.5h-153c-28.667 0 -53 10.167 -73 30.5s-30 44.833 -30 73.5z" />
    <glyph glyph-name="m" unicode="m" horiz-adv-x="1760" 
d="M1661 105c0 -29.333 -10.166 -54.168 -30.499 -74.501s-44.833 -30.5 -73.5 -30.5c-29.333 0 -54 10.167 -74 30.5s-30 45.166 -30 74.499v569c0 32 -6.16699 62.333 -18.5 91s-29.166 53.834 -50.499 75.501s-46.5 38.834 -75.5 51.501s-60.167 19 -93.5 19
c-32.667 0 -63.334 -6.33301 -92.001 -19s-53.834 -29.667 -75.501 -51s-38.667 -46.333 -51 -75s-18.5 -59.334 -18.5 -92.001v-569c0 -29.333 -10.167 -54.166 -30.5 -74.499s-44.833 -30.5 -73.5 -30.5c-29.333 0 -54.166 10.167 -74.499 30.5s-30.5 45.166 -30.5 74.499
v569c0 32.667 -6.33301 63.334 -19 92.001s-29.667 53.667 -51 75s-46.333 38.333 -75 51s-59.334 19 -92.001 19s-63.334 -6.16699 -92.001 -18.5s-53.834 -29.333 -75.501 -51s-38.667 -46.834 -51 -75.501s-18.5 -59.334 -18.5 -92.001v-569
c0 -29.333 -10.167 -54.166 -30.5 -74.499s-44.833 -30.5 -73.5 -30.5c-29.333 0 -54.166 10.167 -74.499 30.5s-30.5 45.166 -30.5 74.499v911c0 28.667 10.167 53.167 30.5 73.5s44.833 30.5 73.5 30.5c23.333 0 44 -6.5 62 -19.5s30.333 -30.167 37 -51.5
c71.333 47.333 152.333 71 243 71c66.667 0 129.334 -13.167 188.001 -39.5s110 -66.166 154 -119.499c92.667 106 206.334 159 341.001 159c60.667 0 118.167 -11.833 172.5 -35.5s101.666 -55.667 141.999 -96s72.333 -87.666 96 -141.999s35.5 -111.833 35.5 -172.5v-569
z" />
    <glyph glyph-name="n" unicode="n" horiz-adv-x="1200" 
d="M288 1017c88.667 68.667 193 102.999 313 102.999c70 0 136.5 -13.667 199.5 -41s118.5 -64.5 166.5 -111.5s86 -102.333 114 -166s42 -131.5 42 -203.5v-493c0 -29.333 -10.167 -54.166 -30.5 -74.499s-44.833 -30.5 -73.5 -30.5c-29.333 0 -54.166 10.167 -74.499 30.5
s-30.5 45.166 -30.5 74.499v493c0 42.667 -8.33301 83 -25 121s-39.167 71.167 -67.5 99.5s-61.5 50.833 -99.5 67.5s-78.333 25 -121 25c-43.333 0 -83.833 -8.16699 -121.5 -24.5s-70.834 -38.833 -99.501 -67.5s-51.167 -62 -67.5 -100s-24.5 -78.333 -24.5 -121v-493
c0 -29.333 -10.167 -54.166 -30.5 -74.499s-44.833 -30.5 -73.5 -30.5c-29.333 0 -54.166 10.167 -74.499 30.5s-30.5 45.166 -30.5 74.499v910c0 28.667 10.167 53.334 30.5 74.001s45.166 31 74.499 31c28.667 0 53.167 -10.333 73.5 -31s30.5 -44.667 30.5 -72z" />
    <glyph glyph-name="o" unicode="o" 
d="M1200 560c0 -156 -54.667 -288 -164 -396c-110.667 -109.333 -242.667 -164 -396 -164c-154.667 0 -286.667 54.667 -396 164s-164 241.333 -164 396s54.667 286.667 164 396s241.333 164 396 164c153.333 0 285.333 -54.667 396 -164
c54.667 -54.667 95.5 -115 122.5 -181s40.833 -137.667 41.5 -215zM640 911c-49.333 0 -95.333 -9.3291 -138 -27.9961s-79.667 -43.834 -111 -75.501s-56.166 -68.834 -74.499 -111.501s-27.5 -88 -27.5 -136s9.16699 -93.333 27.5 -136s43.166 -79.834 74.499 -111.501
s68.333 -56.834 111 -75.501s88.667 -28 138 -28c48.667 0 94.334 9.33301 137.001 28s79.834 44 111.501 76s56.667 69.167 75 111.5s27.5 87.5 27.5 135.5s-9.16699 93.167 -27.5 135.5s-43.333 79.5 -75 111.5s-68.834 57.333 -111.501 76s-88.334 28 -137.001 28z" />
    <glyph glyph-name="p" unicode="p" 
d="M289 560c0 -48 9.16699 -93.3291 27.5 -135.996s43.166 -79.834 74.499 -111.501s68.333 -56.834 111 -75.501s88.667 -28 138 -28c48.667 0 94.334 9.33301 137.001 28s79.834 44 111.501 76s56.667 69.167 75 111.5s27.5 87.5 27.5 135.5s-9.16699 93.167 -27.5 135.5
s-43.333 79.5 -75 111.5s-68.834 57.333 -111.501 76s-88.334 28 -137.001 28c-49.333 0 -95.333 -9.33301 -138 -28s-79.667 -43.834 -111 -75.501s-56.166 -68.834 -74.499 -111.501s-27.5 -88 -27.5 -136zM640 0.00390625c-134 0 -251 40.999 -351 122.999v-499
c0 -30 -10.167 -54.833 -30.5 -74.5s-45.166 -29.5 -74.499 -29.5c-30 0 -54.833 9.83301 -74.5 29.5s-29.5 44.5 -29.5 74.5v936c0 154.667 54.667 286.667 164 396s241.333 164 396 164c153.333 0 285.333 -54.667 396 -164c54.667 -54 95.667 -114.167 123 -180.5
s41 -138.166 41 -215.499c0 -156 -54.667 -288 -164 -396c-56 -55.333 -116.833 -96.5 -182.5 -123.5s-136.834 -40.5 -213.501 -40.5z" />
    <glyph glyph-name="q" unicode="q" 
d="M640 911c-49.333 0 -95.333 -9.3291 -138 -27.9961s-79.667 -43.834 -111 -75.501s-56.166 -68.834 -74.499 -111.501s-27.5 -88 -27.5 -136s9.16699 -93.333 27.5 -136s43.166 -79.834 74.499 -111.501s68.333 -56.834 111 -75.501s88.667 -28 138 -28
c48.667 0 94.334 9.33301 137.001 28s79.834 44 111.501 76s56.667 69.167 75 111.5s27.5 87.5 27.5 135.5s-9.16699 93.167 -27.5 135.5s-43.333 79.5 -75 111.5s-68.834 57.333 -111.501 76s-88.334 28 -137.001 28zM991 123.004c-100 -82 -217.001 -123 -351.001 -123
c-154.667 0 -286.667 54.667 -396 164s-164 241.333 -164 396s54.667 286.667 164 396s241.333 164 396 164c153.333 0 285.333 -54.667 396 -164c109.333 -109.333 164 -241.333 164 -396v-936c0 -30 -10.167 -54.833 -30.5 -74.5s-45.166 -29.5 -74.499 -29.5
c-30 0 -54.833 9.83301 -74.5 29.5s-29.5 44.5 -29.5 74.5v499z" />
    <glyph glyph-name="r" unicode="r" horiz-adv-x="960" 
d="M285 1016l0.00292969 -19.9961c50 40 104.333 70.667 163 92s121.334 32 188.001 32c29.333 0 60.833 -2 94.5 -6s64.667 -11.167 93 -21.5s51.833 -24.5 70.5 -42.5s28 -41.333 28 -70c0 -14.667 -2.83301 -28.334 -8.5 -41.001s-13.167 -23.834 -22.5 -33.501
s-20.333 -17.167 -33 -22.5s-26.334 -8 -41.001 -8c-12.667 0 -27.334 3.66699 -44.001 11c-42 16.667 -87.667 25 -137 25c-48.667 0 -94.334 -9.16699 -137.001 -27.5s-79.834 -43.333 -111.501 -75s-56.667 -68.834 -75 -111.501s-27.5 -88.334 -27.5 -137.001v-456
c0 -28.667 -10.167 -53.167 -30.5 -73.5s-44.833 -30.5 -73.5 -30.5c-29.333 0 -54.166 10.167 -74.499 30.5s-30.5 44.833 -30.5 73.5v912c0 28.667 10.167 53.167 30.5 73.5s45.166 30.5 74.499 30.5c28.667 0 53.167 -10.167 73.5 -30.5s30.5 -44.833 30.5 -73.5z" />
    <glyph glyph-name="s" unicode="s" horiz-adv-x="1060" 
d="M284 533c-62.667 24 -106.666 48.668 -131.999 74.001h1c-50.667 51.333 -76 111.666 -76 180.999c0 50.667 13.5 96.5 40.5 137.5s62.167 75.833 105.5 104.5s92.166 50.834 146.499 66.501s108.833 23.5 163.5 23.5c166.667 0 309.667 -67 429 -201
c14 -17.333 21 -38.333 21 -63c0 -30 -9.83301 -54.833 -29.5 -74.5s-44.5 -29.5 -74.5 -29.5c-21.333 0 -39.5 6 -54.5 18s-29.5 25 -43.5 39c-68 68 -150.667 102 -248 102c-96 0 -172.667 -29.333 -230 -88c-10.667 -10.667 -16 -25.334 -16 -44.001
s8.66699 -31.334 26 -38.001l468 -154c65.333 -25.333 109.333 -50 132 -74h-1c50.667 -51.333 76 -111.666 76 -180.999c0 -51.333 -13.5 -97.333 -40.5 -138s-62.167 -75.5 -105.5 -104.5s-92 -51.167 -146 -66.5s-108.333 -23 -163 -23c-168 -0 -311 66.333 -429 199
c-14.667 19.333 -22 41 -22 65c0 30 9.83301 54.833 29.5 74.5s44.5 29.5 74.5 29.5c22 0 40.667 -6.5 56 -19.5s29.333 -25.5 42 -37.5c68 -68 151 -102 249 -102c95.333 0 172 30 230 90c10 11.333 15 25 15 41c0 18.667 -9 31.667 -27 39z" />
    <glyph glyph-name="t" unicode="t" horiz-adv-x="800" 
d="M178 1120l47.001 -0.000976562v376c0 28.667 10.167 53.167 30.5 73.5s45.166 30.5 74.499 30.5c28.667 0 53.167 -10.167 73.5 -30.5s30.5 -44.833 30.5 -73.5v-376h125c28.667 0 53 -10.167 73 -30.5s30 -44.833 30 -73.5c0 -29.333 -10 -54.166 -30 -74.499
s-44.333 -30.5 -73 -30.5h-125v-503c0 -132.667 66.667 -199 200 -199c28.667 0 53 -10.167 73 -30.5s30 -44.833 30 -73.5c0 -29.333 -10 -54.166 -30 -74.499s-44.333 -30.5 -73 -30.5c-272.667 0 -409 136 -409 408v503h-47c-28 0 -52.167 10.167 -72.5 30.5
s-30.5 45.166 -30.5 74.499c0 28.667 10.167 53.167 30.5 73.5s44.5 30.5 72.5 30.5z" />
    <glyph glyph-name="u" unicode="u" horiz-adv-x="1200" 
d="M1018 0c-30 0 -54.667 10 -74 30s-29.333 44.333 -30 73c-46 -36 -94.667 -62.167 -146 -78.5s-107 -24.5 -167 -24.5c-71.333 -0 -138.666 13.833 -201.999 41.5s-118.666 65.167 -165.999 112.5s-84.833 102.666 -112.5 165.999s-41.5 130.666 -41.5 201.999v494
c0 28.667 10.167 53.167 30.5 73.5s45.166 30.5 74.499 30.5c28.667 0 53.167 -10.167 73.5 -30.5s30.5 -44.833 30.5 -73.5v-494c0 -43.333 8.16699 -84 24.5 -122s38.666 -71.167 66.999 -99.5s61.5 -50.666 99.5 -66.999s78.667 -24.5 122 -24.5
c42.667 0 83 8.16699 121 24.5s71.333 38.833 100 67.5s51.167 61.834 67.5 99.501s24.5 78.167 24.5 121.5v494c0 28.667 10.167 53.167 30.5 73.5s45.166 30.5 74.499 30.5c28.667 0 53.167 -10.167 73.5 -30.5s30.5 -44.833 30.5 -73.5v-912
c0 -28.667 -10.167 -53.167 -30.5 -73.5s-45.166 -30.5 -74.499 -30.5z" />
    <glyph glyph-name="v" unicode="v" horiz-adv-x="1200" 
d="M601 0c-44 0 -74.666 18.667 -91.999 56l-422 918c-5.33301 14 -8 28 -8 42s2.66699 27.333 8 40s12.666 23.834 21.999 33.501s20.333 17.167 33 22.5s26.334 8 41.001 8c18 0 35.333 -4.5 52 -13.5s29.667 -21.833 39 -38.5l327 -713l326 712
c19.333 35.333 49.666 53 90.999 53c14.667 0 28.334 -2.66699 41.001 -8s23.667 -12.833 33 -22.5s16.833 -20.834 22.5 -33.501s8.5 -26 8.5 -40c0 -15.333 -3 -29.333 -9 -42l-421 -918c-18.667 -37.333 -49.334 -56 -92.001 -56z" />
    <glyph glyph-name="w" unicode="w" horiz-adv-x="1600" 
d="M796 1120c49.333 0 82.667 -25.667 100 -77l203 -609l210 628c5.33301 17.333 16 31.333 32 42s36.667 16 62 16c14.667 0 28.334 -2.66699 41.001 -8s23.667 -12.833 33 -22.5s16.833 -20.834 22.5 -33.501s8.5 -26 8.5 -40c0 -12.667 -2.66699 -26 -8 -40l-303 -909
c-6 -19.333 -17 -35.333 -33 -48s-37.667 -19 -65 -19c-23.333 0 -44 6.66699 -62 20s-29.667 29 -35 47l-206 618l-206 -618c-6 -19.333 -18 -35.333 -36 -48s-38.667 -19 -62 -19s-43.833 6.33301 -61.5 19s-29.834 28.667 -36.501 48l-303 909
c-4.66699 14.667 -7 28 -7 40c0 14 2.66699 27.333 8 40s12.666 23.834 21.999 33.501s20.333 17.167 33 22.5s26.334 8 41.001 8c24 0 44.167 -5.66699 60.5 -17s27.5 -25 33.5 -41l210 -627l203 608c17.333 51.333 51 77 101 77z" />
    <glyph glyph-name="x" unicode="x" horiz-adv-x="1120" 
d="M426 561l-324 386.001c-16 18 -24 41 -24 69c0 14 2.66699 27.333 8 40s12.666 23.834 21.999 33.501s20.333 17.167 33 22.5s26.334 8 41.001 8c31.333 0 57.333 -11.333 78 -34l302 -361l302 361c20 22.667 45.667 34 77 34c14.667 0 28.334 -2.66699 41.001 -8
s23.667 -12.833 33 -22.5s16.833 -20.834 22.5 -33.501s8.5 -26 8.5 -40c0 -25.333 -8.33301 -48.333 -25 -69l-324 -386l327 -392c14.667 -16.667 22 -38.334 22 -65.001c0 -14 -2.83301 -27.333 -8.5 -40s-13.167 -23.834 -22.5 -33.501s-20.333 -17.167 -33 -22.5
s-26.334 -8 -41.001 -8c-28.667 0 -53.667 10.667 -75 32l-304 366l-306 -366c-20 -21.333 -44.667 -32 -74 -32c-14.667 0 -28.334 2.66699 -41.001 8s-23.667 12.833 -33 22.5s-16.666 20.834 -21.999 33.501s-8 26 -8 40c0 26 7 47.667 21 65z" />
    <glyph glyph-name="y" unicode="y" horiz-adv-x="1120" 
d="M448 104l-360.001 865.002c-6.66699 15.333 -10 31 -10 47c0 14 2.66699 27.333 8 40s12.666 23.834 21.999 33.501s20.333 17.167 33 22.5s26.334 8 41.001 8c20.667 0 40 -5.83301 58 -17.5s31.667 -28.834 41 -51.501l281 -671l281 673c8 20 19.5 36.167 34.5 48.5
s36.167 18.5 63.5 18.5c14.667 0 28.334 -2.66699 41.001 -8s23.667 -12.833 33 -22.5s16.833 -20.834 22.5 -33.501s8.5 -26 8.5 -40c0 -14.667 -3.66699 -30.334 -11 -47.001l-575 -1379c-8.66699 -20.667 -22 -37.5 -40 -50.5s-37.667 -19.5 -59 -19.5
c-30 0 -54.833 10 -74.5 30s-29.5 45 -29.5 75c0 16 3.33301 31.333 10 46z" />
    <glyph glyph-name="z" unicode="z" horiz-adv-x="1120" 
d="M941 0l-759.001 -0.000976562c-14.667 0 -28.334 2.66699 -41.001 8s-23.667 12.833 -33 22.5s-16.666 20.834 -21.999 33.501s-8 26 -8 40c0 24.667 7 46.334 21 65.001l619 742h-536c-28 0 -52.167 10.167 -72.5 30.5s-30.5 45.166 -30.5 74.499
c0 28.667 10.167 53.167 30.5 73.5s44.5 30.5 72.5 30.5h759c14.667 0 28.334 -2.66699 41.001 -8s23.667 -12.833 33 -22.5s16.833 -20.834 22.5 -33.501s8.5 -26 8.5 -40c0 -27.333 -8.33301 -50.333 -25 -69l-618 -738h538c28.667 0 53 -10.167 73 -30.5
s30 -44.833 30 -73.5c0 -29.333 -10 -54.166 -30 -74.499s-44.333 -30.5 -73 -30.5z" />
    <glyph glyph-name="braceleft" unicode="{" horiz-adv-x="800" 
d="M634 1599c30 0 54.833 -10.168 74.5 -30.501s29.5 -45.166 29.5 -74.499c0 -30 -9.83301 -54.833 -29.5 -74.5s-44.5 -29.5 -74.5 -29.5c-82.667 0 -124 -41.333 -124 -124v-478c0 -96 -22 -172 -66 -228c44 -56 66 -132 66 -228v-478c0 -82.667 41.333 -124 124 -124
c30 0 54.833 -9.83301 74.5 -29.5s29.5 -44.5 29.5 -74.5s-9.83301 -55 -29.5 -75s-44.5 -30 -74.5 -30c-222 0 -333 111 -333 333v478c0 82.667 -41 124 -123 124c-30 0 -54.833 9.83301 -74.5 29.5s-29.5 44.5 -29.5 74.5s9.83301 54.833 29.5 74.5s44.5 29.5 74.5 29.5
c82 0 123 41.333 123 124v478c0 222 111 333 333 333z" />
    <glyph glyph-name="bar" unicode="|" horiz-adv-x="800" 
d="M510 1495v-1870c0 -30 -9.83301 -55 -29.5 -75s-44.5 -30 -74.5 -30s-55 10 -75 30s-30 45 -30 75v1870c0 30 10 55 30 75s45 30 75 30s54.833 -10 74.5 -30s29.5 -45 29.5 -75z" />
    <glyph glyph-name="braceright" unicode="}" horiz-adv-x="800" 
d="M511 1266v-477.999c0 -82.667 41 -124 123 -124c30 0 54.833 -9.83301 74.5 -29.5s29.5 -44.5 29.5 -74.5s-9.83301 -54.833 -29.5 -74.5s-44.5 -29.5 -74.5 -29.5c-82 0 -123 -41.333 -123 -124v-478c0 -222 -111 -333 -333 -333c-30 0 -54.833 10 -74.5 30
s-29.5 45 -29.5 75s9.83301 54.833 29.5 74.5s44.5 29.5 74.5 29.5c82.667 0 124 41.333 124 124v478c0 96 22 172 66 228c-44 56 -66 132 -66 228v478c0 82.667 -41.333 124 -124 124c-30 0 -54.833 9.83301 -74.5 29.5s-29.5 44.5 -29.5 74.5
c0 29.333 9.83301 54.166 29.5 74.499s44.5 30.5 74.5 30.5c222 0 333 -111 333 -333z" />
    <glyph glyph-name="asciitilde" unicode="~" horiz-adv-x="960" 
d="M332 576c-25.333 0 -53.334 3.66797 -84.001 11.001s-59.5 18.333 -86.5 33s-49.5 32.5 -67.5 53.5s-27 45.5 -27 73.5c0.666992 31.333 11 56.5 31 75.5s44.333 28.5 73 28.5c24 0 51 -11 81 -33s58 -33 84 -33c28.667 0 53 9 73 27c58 54.667 131 82 219 82
c24.667 0 52.5 -3.83301 83.5 -11.5s59.833 -18.834 86.5 -33.501s49.167 -32.667 67.5 -54s27.5 -45.333 27.5 -72c0 -30 -10.167 -54.833 -30.5 -74.5s-45.166 -29.5 -74.499 -29.5c-21.333 0 -47.833 11 -79.5 33s-59.5 33 -83.5 33c-27.333 0 -52 -9 -74 -27
c-60 -54.667 -133 -82 -219 -82z" />
    <glyph glyph-name="exclamdown" unicode="&#xa1;" horiz-adv-x="400" 
d="M211 835c-19.333 0 -37.668 3.83301 -55.001 11.5s-32.5 18 -45.5 31s-23.167 28.167 -30.5 45.5s-11 35.666 -11 54.999c0 20 3.83301 38.667 11.5 56s18 32.333 31 45s28 22.667 45 30s35.167 11 54.5 11c18.667 0 36.667 -3.66699 54 -11s32.5 -17.333 45.5 -30
s23.333 -27.667 31 -45s11.5 -36 11.5 -56c0 -19.333 -3.66699 -37.666 -11 -54.999s-17.5 -32.5 -30.5 -45.5s-28.167 -23.333 -45.5 -31s-35.666 -11.5 -54.999 -11.5zM106.998 670c0 14 2.66699 27.167 8 39.5s12.666 23.166 21.999 32.499s20.333 16.833 33 22.5
s26.334 8.5 41.001 8.5c14 0 27.333 -2.66699 40 -8s23.667 -12.666 33 -21.999s16.833 -20.333 22.5 -33s8.5 -26 8.5 -40v-1044c0 -29.333 -9.83301 -54.166 -29.5 -74.499s-44.5 -30.5 -74.5 -30.5s-54.833 10.167 -74.5 30.5s-29.5 45.166 -29.5 74.499v1044z" />
    <glyph glyph-name="cent" unicode="&#xa2;" horiz-adv-x="1120" 
d="M587 906c-43.333 -7.33301 -83 -21.667 -119 -43s-67 -47.5 -93 -78.5s-46.167 -65.667 -60.5 -104s-21.5 -78.5 -21.5 -120.5s5.66699 -80 17 -114s29 -67 53 -99zM539 222.999c36 -9.33301 71.0029 -13.9951 105.003 -13.9951c44 0 84.833 7.16699 122.5 21.5
s73.167 35.833 106.5 64.5c9.33301 7.33301 19.666 12.833 30.999 16.5s23 5.5 35 5.5c30 0 54.833 -9.83301 74.5 -29.5s29.5 -44.5 29.5 -74.5c0 -29.333 -11 -55 -33 -77c-104.667 -90.667 -226.667 -136 -366 -136c-66 0 -126.667 9.33301 -182 28l-106 -265
c-8 -18 -20.833 -33.667 -38.5 -47s-37.167 -20 -58.5 -20c-14.667 0 -28.334 2.83301 -41.001 8.5s-23.834 13.5 -33.501 23.5s-17.167 21.333 -22.5 34s-8 26 -8 40c0 12.667 2.33301 25.334 7 38.001l118 295l-30 29c-110 108.667 -165 240.667 -165 396
c0 76.667 14.833 148.834 44.5 216.501s70 127 121 178s110.333 91.333 178 121s139.834 44.5 216.501 44.5h28l96 238c10.667 27.333 29.667 46.666 57 57.999c12.667 5.33301 26.334 8 41.001 8s28.334 -2.83301 41.001 -8.5s23.667 -13.334 33 -23.001
s16.666 -20.834 21.999 -33.501s8 -26 8 -40c0 -10 -2.66699 -22.667 -8 -38l-83 -210c38.667 -20.667 76.167 -44.334 112.5 -71.001s54.5 -58.334 54.5 -95.001c0 -14.667 -2.83301 -28.334 -8.5 -41.001s-13.167 -23.834 -22.5 -33.501s-20.333 -17.167 -33 -22.5
s-26.334 -8 -41.001 -8c-25.333 0 -48.333 8.5 -69 25.5s-44.334 33.5 -71.001 49.5z" />
    <glyph glyph-name="sterling" unicode="&#xa3;" horiz-adv-x="1040" 
d="M260 0c-34.667 0 -60.998 10.002 -78.998 30.002s-27 45 -27 75c0 17.333 2.33301 31.333 7 42c69.333 162 105.333 318 108 468h-87c-30 0 -55 10.167 -75 30.5s-30 45.833 -30 76.5s10 55.834 30 75.501s45 29.5 75 29.5h66c-14.667 68 -35.667 135 -63 201
c-20.667 48.667 -31 100.334 -31 155.001c0 57.333 11 111.333 33 162s51.833 94.667 89.5 132s81.5 66.833 131.5 88.5s103.333 32.5 160 32.5c71.333 0 135.166 -15.333 191.499 -46s107.5 -76.667 153.5 -138c13.333 -19.333 20 -40.666 20 -63.999
c0 -30.667 -10 -56.167 -30 -76.5s-45.333 -30.5 -76 -30.5c-26 0 -47.167 9.16699 -63.5 27.5l-52.5 56.5c-39.333 39.333 -87 59 -143 59c-28 0 -54.333 -5.33301 -79 -16s-46.167 -25.167 -64.5 -43.5s-32.833 -39.833 -43.5 -64.5s-16 -51 -16 -79
c0 -23.333 5.66699 -48.333 17 -75c20 -46.667 36.667 -93 50 -139s24 -93.333 32 -142h258c30.667 0 55.834 -9.83301 75.501 -29.5s29.5 -44.834 29.5 -75.501s-9.83301 -56.167 -29.5 -76.5s-44.834 -30.5 -75.501 -30.5h-242c-1.33301 -65.333 -7.5 -131.5 -18.5 -198.5
s-27.5 -135.167 -49.5 -204.5h321c20.667 40.667 40.167 76.5 58.5 107.5s46.166 46.5 83.499 46.5c14.667 0 28.5 -2.83301 41.5 -8.5s24.167 -13.334 33.5 -23.001s16.833 -20.834 22.5 -33.501s8.5 -26.334 8.5 -41.001c0 -18.667 -4 -35.334 -12 -50.001l-74 -146
c-22.667 -42.667 -54.667 -64 -96 -64h-539z" />
    <glyph glyph-name="currency" unicode="&#xa4;" horiz-adv-x="960" 
d="M484 864c-17.333 0 -33.5 -3.33105 -48.5 -9.99805s-28 -15.667 -39 -27s-19.833 -24.5 -26.5 -39.5s-10 -30.833 -10 -47.5c0 -16 3.16699 -31.5 9.5 -46.5s15 -28.167 26 -39.5s24 -20.333 39 -27s31.5 -10 49.5 -10c16.667 0 32.5 3.16699 47.5 9.5
s28 15.166 39 26.499s19.833 24.333 26.5 39s10 30.667 10 48s-3.33301 33.666 -10 48.999s-15.667 28.5 -27 39.5s-24.5 19.667 -39.5 26s-30.5 9.5 -46.5 9.5zM686 1090c20 20 44.3311 30 72.998 30c14.667 0 28.334 -2.66699 41.001 -8s23.667 -12.833 33 -22.5
s16.666 -20.834 21.999 -33.501s8 -26 8 -40c-0.666992 -32 -11 -57.333 -31 -76l-50 -47c22.667 -44.667 34 -95.667 34 -153c0 -53.333 -11 -102.333 -33 -147l51 -54c19.333 -20.667 29 -45.334 29 -74.001c0 -30 -9.83301 -54.833 -29.5 -74.5s-44.5 -29.5 -74.5 -29.5
c-27.333 0 -51.333 9 -72 27l-50 55c-48 -23.333 -99 -35 -153 -35c-51.333 0 -100.333 10.667 -147 32l-53 -49c-22.667 -20 -47.667 -30 -75 -30c-30 0 -55 9.83301 -75 29.5s-30 44.5 -30 74.5c0 28 10.333 52.667 31 74l53 49c-24 46 -36 96.667 -36 152
c0 54.667 11.333 104.334 34 149.001l-51 54c-20.667 18 -31 42.333 -31 73c0 14 2.66699 27.333 8 40s12.833 23.834 22.5 33.501s20.834 17.167 33.501 22.5s26.334 8 41.001 8c27.333 0 51.333 -9.33301 72 -28l50 -55c52.667 27.333 103.667 39.333 153 36
c52 0 101 -11.333 147 -34z" />
    <glyph glyph-name="yen" unicode="&#xa5;" 
d="M1183 1436l-246.998 -367.999h160c29.333 0 54.333 -9.83301 75 -29.5s31 -44.5 31 -74.5c0 -30.667 -10.333 -55.834 -31 -75.501s-45.667 -29.5 -75 -29.5h-300l-52 -79v-92h351c29.333 0 54.166 -9.83301 74.499 -29.5s30.5 -44.5 30.5 -74.5
s-10.167 -54.833 -30.5 -74.5s-45.166 -29.5 -74.499 -29.5h-351v-374c0 -30 -10 -55.167 -30 -75.5s-45 -30.5 -75 -30.5s-54.833 10.167 -74.5 30.5s-29.5 45.5 -29.5 75.5v374h-351c-30 0 -54.833 9.83301 -74.5 29.5s-29.5 44.5 -29.5 74.5s9.83301 54.833 29.5 74.5
s44.5 29.5 74.5 29.5h351v92l-52 79h-299c-30 0 -54.833 10 -74.5 30s-29.5 45 -29.5 75s9.83301 54.833 29.5 74.5s44.5 29.5 74.5 29.5h160l-247 368c-11.333 17.333 -17 37 -17 59c0 29.333 9.83301 54.166 29.5 74.499s44.5 30.5 74.5 30.5
c35.333 0 63.666 -14.667 84.999 -44l371 -554l370 554c21.333 29.333 49.666 44 84.999 44c30 0 54.833 -10.167 74.5 -30.5s29.5 -45.166 29.5 -74.499c0 -22 -5.33301 -41.667 -16 -59z" />
    <glyph glyph-name="brokenbar" unicode="&#xa6;" horiz-adv-x="480" 
d="M145 1623c0 30 10 54.833 30 74.5s45 29.5 75 29.5s54.833 -9.83301 74.5 -29.5s29.5 -44.5 29.5 -74.5v-683c0 -30 -9.83301 -55 -29.5 -75s-44.5 -30 -74.5 -30s-55 10 -75 30s-30 45 -30 75v683zM145 309c0 30 10 54.833 30 74.5s45 29.5 75 29.5
s54.833 -9.83301 74.5 -29.5s29.5 -44.5 29.5 -74.5v-683c0 -30 -9.83301 -55 -29.5 -75s-44.5 -30 -74.5 -30s-55 10 -75 30s-30 45 -30 75v683z" />
    <glyph glyph-name="section" unicode="&#xa7;" horiz-adv-x="960" 
d="M494 765c-28 0 -54.5 -5.16699 -79.5 -15.5s-46.667 -24.833 -65 -43.5s-33 -40.5 -44 -65.5s-16.5 -51.167 -16.5 -78.5c0 -29.333 5.5 -56.333 16.5 -81s25.667 -46.167 44 -64.5s40 -32.666 65 -42.999s51.5 -15.5 79.5 -15.5c27.333 0 53.333 5.16699 78 15.5
s46.334 24.833 65.001 43.5s33.5 40.167 44.5 64.5s16.5 51.166 16.5 80.499c0 27.333 -5.5 53.5 -16.5 78.5s-25.833 46.833 -44.5 65.5s-40.334 33.167 -65.001 43.5s-50.667 15.5 -78 15.5zM912 1183c0 -30.667 -10.165 -56.166 -30.498 -76.499
s-45.833 -30.5 -76.5 -30.5s-56.167 10.167 -76.5 30.5s-30.5 45.833 -30.5 76.5c0 28 -5.5 54.5 -16.5 79.5s-25.833 46.667 -44.5 65s-40.334 33 -65.001 44s-50.667 16.5 -78 16.5c-28 0 -54.5 -5.5 -79.5 -16.5s-46.667 -25.667 -65 -44s-33 -40 -44 -65
s-16.5 -51.5 -16.5 -79.5s5.33301 -54.5 16 -79.5s25.167 -46.667 43.5 -65s40 -32.833 65 -43.5s51.833 -16 80.5 -16c57.333 0 111.333 -11 162 -33s95 -52 133 -90s68 -82.333 90 -133s33 -104.334 33 -161.001c0 -118 -46.333 -222 -139 -312
c92.667 -90 139 -193.333 139 -310c0 -57.333 -11.167 -111.333 -33.5 -162s-52.5 -95 -90.5 -133s-82.167 -68.167 -132.5 -90.5s-104.166 -33.5 -161.499 -33.5s-111.5 11.167 -162.5 33.5s-95.333 52.5 -133 90.5s-67.5 82.333 -89.5 133s-33 104.667 -33 162
c0 30.667 10.167 56.167 30.5 76.5s46.166 30.5 77.499 30.5c30 0 55 -10.167 75 -30.5s30 -45.833 30 -76.5c0 -28 5.5 -54.5 16.5 -79.5s25.667 -46.667 44 -65s40 -33 65 -44s51.5 -16.5 79.5 -16.5c27.333 0 53.333 5.5 78 16.5s46.334 25.667 65.001 44
s33.5 40 44.5 65s16.5 51.5 16.5 79.5c0 27.333 -5.5 53.333 -16.5 78s-25.833 46.334 -44.5 65.001s-40.334 33.5 -65.001 44.5s-50.667 16.5 -78 16.5c-57.333 0 -111.5 10.833 -162.5 32.5s-95.333 51.5 -133 89.5s-67.5 82.333 -89.5 133s-33 105 -33 163
c0 115.333 45.667 219 137 311c-51.333 49.333 -87 99.166 -107 149.499s-30 103.833 -30 160.5s11 110.5 33 161.5s51.833 95.5 89.5 133.5s82 68.167 133 90.5s105.167 33.5 162.5 33.5s111.166 -11.167 161.499 -33.5s94.5 -52.5 132.5 -90.5s68.167 -82.333 90.5 -133
s33.5 -104.667 33.5 -162z" />
    <glyph glyph-name="dieresis" unicode="&#xa8;" horiz-adv-x="960" 
d="M378 1359c0 -34 -12 -63 -36 -87s-53 -36 -87 -36s-63 12 -87 36s-36 53 -36 87s12 63 36 87s53 36 87 36s63 -12 87 -36s36 -53 36 -87zM833 1359c0 -34 -12 -63 -36 -87s-53 -36 -87 -36s-63 12 -87 36s-36 53 -36 87s12 63 36 87s53 36 87 36s63 -12 87 -36
s36 -53 36 -87z" />
    <glyph glyph-name="copyright" unicode="&#xa9;" horiz-adv-x="1760" 
d="M1175 561c30 0 54.667 -10.1699 74 -30.5029s29 -44.833 29 -73.5c0 -14 -2.66699 -27.667 -8 -41s-13.666 -25 -24.999 -35c-50.667 -45.333 -106 -79.166 -166 -101.499s-125.333 -33.5 -196 -33.5c-153.333 0 -284 54.333 -392 163
c-108.667 108.667 -163 239.667 -163 393c0 152 54.333 282.667 163 392c53.333 54 112.833 94.667 178.5 122s136.834 41 213.501 41c140 0 260.667 -45 362 -135c24 -21.333 36 -47.666 36 -78.999c0 -30 -9.66699 -54.833 -29 -74.5s-44 -29.5 -74 -29.5
c-12 0 -24 1.83301 -36 5.5s-22.333 9.83398 -31 18.501c-34 28.667 -69.5 50.334 -106.5 65.001s-77.5 22 -121.5 22c-48 0 -93.167 -9.33301 -135.5 -28s-79.333 -43.834 -111 -75.501s-56.667 -68.5 -75 -110.5s-27.5 -86.667 -27.5 -134c0 -48 9.16699 -93 27.5 -135
s43.166 -78.833 74.499 -110.5s68.166 -56.667 110.499 -75s87.833 -27.5 136.5 -27.5c44 0 84.5 7 121.5 21s72.167 35.333 105.5 64c8.66699 8 18.5 13.5 29.5 16.5s22.833 4.83301 35.5 5.5zM1685 799.997c0 -222 -78.333 -410.668 -235 -566.001
c-157.333 -156 -345.333 -234 -564 -234c-110.667 0 -213.167 19.333 -307.5 58s-180.833 97.334 -259.5 176.001c-78.667 78 -137.167 164.167 -175.5 258.5s-57.5 196.833 -57.5 307.5c0 220 77.667 408 233 564c155.333 156.667 344.333 235 567 235
c221.333 0 409.333 -78.333 564 -235c156.667 -154.667 235 -342.667 235 -564zM883 1437c-176 0 -325.999 -61.999 -449.999 -185.999s-186 -273.333 -186 -448c0 -90 15.167 -172 45.5 -246s77.166 -142.333 140.499 -205c123.333 -123.333 273.333 -185 450 -185
c88 0 169.5 15.167 244.5 45.5s143.167 76.833 204.5 139.5c124 125.333 186 275.666 186 450.999c0 174.667 -62 324 -186 448s-273.667 186 -449 186z" />
    <glyph glyph-name="ordfeminine" unicode="&#xaa;" horiz-adv-x="960" 
d="M484 1367c-27.333 0 -53.167 -5.33398 -77.5 -16.001s-45.5 -25 -63.5 -43s-32.333 -39.167 -43 -63.5s-16 -50.166 -16 -77.499s5.16699 -53.166 15.5 -77.499s24.5 -45.5 42.5 -63.5s39.167 -32.167 63.5 -42.5s50.5 -15.5 78.5 -15.5c26.667 0 52.167 5.33301 76.5 16
s45.5 25 63.5 43s32.333 39 43 63s16 49.667 16 77s-5.33301 53.166 -16 77.499s-25.167 45.5 -43.5 63.5s-39.5 32.333 -63.5 43s-49.333 16 -76 16zM712.999 790.999c-7.33301 7.33301 -13.332 15.6699 -17.999 25.0029c-62.667 -38 -133 -57 -211 -57
c-56 0 -108.833 10.833 -158.5 32.5s-93 51.167 -130 88.5s-66.167 80.666 -87.5 129.999s-32 101.666 -32 156.999s10.667 107.833 32 157.5s50.5 93.167 87.5 130.5s80.333 66.833 130 88.5s102.5 32.5 158.5 32.5s108.667 -10.833 158 -32.5s92.5 -51.167 129.5 -88.5
s66.333 -80.666 88 -129.999s32.5 -102 32.5 -158v-303c0 -14.667 -2.66699 -28.334 -8 -41.001s-12.833 -23.834 -22.5 -33.501s-20.834 -17.167 -33.501 -22.5s-26 -8 -40 -8c-30 0 -55 10.667 -75 32z" />
    <glyph glyph-name="guillemotleft" unicode="&#xab;" horiz-adv-x="960" 
d="M312 1055c9.33301 21.333 22.3311 37.335 38.998 48.002s35.667 16 57 16c30 0 54.833 -9.83301 74.5 -29.5s29.834 -44.5 30.501 -74.5c-0.666992 -16.667 -4 -31.667 -10 -45l-205 -410l205 -412c6 -12.667 9 -27.334 9 -44.001c0 -14 -2.66699 -27.333 -8 -40
s-12.666 -23.834 -21.999 -33.501s-20.333 -17.167 -33 -22.5s-26.334 -8 -41.001 -8c-19.333 -0 -37.666 5.33301 -54.999 16s-31 26.667 -41 48l-221 441c-10 19.333 -15 37.333 -15 54c0 16 4.33301 32.667 13 50zM693.998 1055
c9.33301 21.333 22.3311 37.335 38.998 48.002s35.667 16 57 16c30 0 54.833 -9.83301 74.5 -29.5s29.834 -44.5 30.501 -74.5c-0.666992 -16.667 -4 -31.667 -10 -45l-205 -410l205 -412c6 -12.667 9 -27.334 9 -44.001c0 -14 -2.66699 -27.333 -8 -40
s-12.666 -23.834 -21.999 -33.501s-20.333 -17.167 -33 -22.5s-26.334 -8 -41.001 -8c-19.333 0 -37.666 5.33301 -54.999 16s-31 26.667 -41 48l-221 441c-10 19.333 -15 37.333 -15 54c0 16 4.33301 32.667 13 50z" />
    <glyph glyph-name="logicalnot" unicode="&#xac;" horiz-adv-x="1120" 
d="M182 911c-30 0 -54.832 10 -74.499 30s-29.5 45 -29.5 75c0 14 2.66699 27.333 8 40s12.666 23.834 21.999 33.501s20.333 17.167 33 22.5s26.334 8 41.001 8h759c14.667 0 28.334 -2.66699 41.001 -8s23.667 -12.833 33 -22.5s16.833 -20.834 22.5 -33.501
s8.5 -26 8.5 -40v-304c0 -14.667 -2.83301 -28.334 -8.5 -41.001s-13.167 -23.834 -22.5 -33.501s-20.333 -17.167 -33 -22.5s-26.334 -8 -41.001 -8c-14 0 -27.333 2.66699 -40 8s-23.834 12.833 -33.501 22.5s-17.167 20.834 -22.5 33.501s-8 26.334 -8 41.001v199h-655z
" />
    <glyph glyph-name="registered" unicode="&#xae;" horiz-adv-x="1760" 
d="M1688 802c0 -222.667 -78.668 -411.666 -236.001 -566.999c-157.333 -156.667 -345.333 -235 -564 -235c-111.333 0 -214.166 19.333 -308.499 58s-180.833 97.667 -259.5 177c-79.333 78 -138.166 164.167 -176.499 258.5s-57.5 197.166 -57.5 308.499
c0 220 78 408 234 564c155.333 157.333 344.666 236 567.999 236c221.333 0 409.333 -78.667 564 -236c157.333 -154.667 236 -342.667 236 -564zM884.999 1435c-175.333 0 -324.665 -61.668 -447.998 -185.001s-185 -272 -185 -446
c0 -89.333 15.167 -170.666 45.5 -243.999s76.833 -141.333 139.5 -204c122.667 -122.667 272 -184 448 -184c87.333 0 168.166 15.167 242.499 45.5s142.166 76.5 203.499 138.5c123.333 124.667 185 274 185 448s-61.667 322.667 -185 446s-272 185 -446 185zM717 1181
v-341.001h171c23.333 0 45.333 4.5 66 13.5s38.834 21.333 54.501 37s28 33.834 37 54.501s13.5 42.667 13.5 66s-4.5 45.333 -13.5 66s-21.333 38.667 -37 54s-33.834 27.5 -54.501 36.5s-42.667 13.5 -66 13.5h-171zM888 1338c44 0 85.832 -8.66699 125.499 -26
s74.334 -40.666 104.001 -69.999s53.334 -64 71.001 -104s26.5 -82.333 26.5 -127c0 -58.667 -13.667 -112.167 -41 -160.5s-68.333 -89.5 -123 -123.5l199 -319c10 -14.667 15 -29.334 15 -44.001c0 -10.667 -2.16699 -20.834 -6.5 -30.501s-10 -18 -17 -25
s-15.167 -12.667 -24.5 -17s-19.333 -6.5 -30 -6.5c-29.333 0 -52 13 -68 39l-224 360h-178v-320c0 -21.333 -7.83301 -39.833 -23.5 -55.5s-34.167 -23.5 -55.5 -23.5c-10.667 0 -20.667 2.16699 -30 6.5s-17.5 10 -24.5 17s-12.667 15.333 -17 25s-6.5 19.834 -6.5 30.501
v896c0 22 7.66699 40.5 23 55.5s33.666 22.5 54.999 22.5h250z" />
    <glyph glyph-name="macron" unicode="&#xaf;" horiz-adv-x="1120" 
d="M182 1671c-30 0 -54.833 9.83301 -74.5 29.5s-29.5 44.5 -29.5 74.5s9.83301 54.833 29.5 74.5s44.5 29.5 74.5 29.5h759c29.333 0 54.166 -9.83301 74.499 -29.5s30.5 -44.5 30.5 -74.5s-10.167 -54.833 -30.5 -74.5s-45.166 -29.5 -74.499 -29.5h-759z" />
    <glyph glyph-name="degree" unicode="&#xb0;" horiz-adv-x="960" 
d="M892 1167c0 -55.333 -10.833 -107.667 -32.5 -157s-51 -92.666 -88 -129.999s-80.167 -66.833 -129.5 -88.5s-102 -32.5 -158 -32.5s-108.833 10.833 -158.5 32.5s-93 51.167 -130 88.5s-66.167 80.666 -87.5 129.999s-32 101.666 -32 156.999s10.667 107.833 32 157.5
s50.5 93.167 87.5 130.5s80.333 66.833 130 88.5s102.5 32.5 158.5 32.5s108.667 -10.833 158 -32.5s92.5 -51.167 129.5 -88.5s66.333 -80.666 88 -129.999s32.5 -102 32.5 -158zM484 1367c-27.333 0 -53.167 -5.33398 -77.5 -16.001s-45.5 -25 -63.5 -43
s-32.333 -39.167 -43 -63.5s-16 -50.166 -16 -77.499s5.16699 -53.166 15.5 -77.499s24.5 -45.5 42.5 -63.5s39.167 -32.167 63.5 -42.5s50.5 -15.5 78.5 -15.5c26.667 0 52.167 5.33301 76.5 16s45.5 25 63.5 43s32.333 39 43 63s16 49.667 16 77
s-5.33301 53.166 -16 77.499s-25.167 45.5 -43.5 63.5s-39.5 32.333 -63.5 43s-49.333 16 -76 16z" />
    <glyph glyph-name="plusminus" unicode="&#xb1;" horiz-adv-x="1120" 
d="M941 683l-274.999 -0.00292969v-275c0 -30 -9.83301 -54.833 -29.5 -74.5s-44.5 -29.5 -74.5 -29.5s-55 9.83301 -75 29.5s-30 44.5 -30 74.5v275h-275c-30 0 -54.833 10 -74.5 30s-29.5 45 -29.5 75s9.83301 54.833 29.5 74.5s44.5 29.5 74.5 29.5h275v275
c0 28.667 10.167 53.334 30.5 74.001s45.166 31 74.499 31c30 0 54.833 -10.167 74.5 -30.5s29.5 -45.166 29.5 -74.499v-275h275c28.667 0 53.334 -10.167 74.001 -30.5s31 -45.166 31 -74.499c0 -28.667 -10.333 -53.167 -31 -73.5s-45.334 -30.5 -74.001 -30.5z
M182.001 -0.00292969c-30 0 -54.833 9.83301 -74.5 29.5s-29.5 44.5 -29.5 74.5s9.83301 54.833 29.5 74.5s44.5 29.5 74.5 29.5h760c30 0 54.833 -9.83301 74.5 -29.5s29.5 -44.5 29.5 -74.5s-9.83301 -54.833 -29.5 -74.5s-44.5 -29.5 -74.5 -29.5h-760z" />
    <glyph glyph-name="uni00B2" unicode="&#xb2;" horiz-adv-x="640" 
d="M514 923c17.333 0 32.4971 -6.66895 45.4971 -20.002s19.5 -28.666 19.5 -45.999c0 -19.333 -6.5 -35.166 -19.5 -47.499s-28.167 -18.5 -45.5 -18.5h-376c-19.333 0 -35.166 6.16699 -47.499 18.5s-18.5 28.166 -18.5 47.499c0 18.667 5.66699 34 17 46l321 355
c24.667 24.667 37 53.667 37 87c0 16.667 -3.33301 32.5 -10 47.5s-15.5 28 -26.5 39s-23.833 19.833 -38.5 26.5s-30 10 -46 10c-17.333 0 -33.333 -3.33301 -48 -10s-27.667 -15.5 -39 -26.5s-20.166 -24 -26.499 -39s-9.5 -30.833 -9.5 -47.5
c0 -17.333 -6.5 -32.5 -19.5 -45.5s-28.167 -19.5 -45.5 -19.5c-19.333 0 -35.166 6.5 -47.499 19.5s-18.5 28.167 -18.5 45.5c0 35.333 6.83301 68.5 20.5 99.5s32 58 55 81s50 41.167 81 54.5s63.5 20 97.5 20s66.333 -6.66699 97 -20s57.5 -31.666 80.5 -54.999
s41.333 -50.5 55 -81.5s20.5 -63.833 20.5 -98.5c0 -34 -6.33301 -66 -19 -96s-31 -57.333 -55 -82l-218 -244h227z" />
    <glyph glyph-name="uni00B3" unicode="&#xb3;" horiz-adv-x="640" 
d="M328 1165c-19.333 0 -35.3311 6.17188 -47.998 18.5049s-19 28.166 -19 47.499c0 17.333 6.33301 32.833 19 46.5s28.667 20.5 48 20.5c23.333 0 43.166 8.16699 59.499 24.5s24.5 36.166 24.5 59.499c0 25.333 -8.33301 46 -25 62s-36.334 24 -59.001 24
c-12 0 -23.167 -2.33301 -33.5 -7s-19.5 -10.834 -27.5 -18.501s-14.167 -16.667 -18.5 -27s-6.5 -21.5 -6.5 -33.5c0 -17.333 -6.66699 -32.5 -20 -45.5s-28.666 -19.5 -45.999 -19.5c-19.333 0 -35.166 6.5 -47.499 19.5s-18.5 28.167 -18.5 45.5
c0 30.667 5.83301 59.334 17.5 86.001s27.5 49.834 47.5 69.501s43.167 35.167 69.5 46.5s54.166 17 83.499 17s57.166 -6 83.499 -18s49.333 -28 69 -48s35.334 -43.333 47.001 -70s17.5 -54.334 17.5 -83.001c0 -26.667 -4.83301 -52.334 -14.5 -77.001
s-22.5 -47 -38.5 -67c30.667 -22 53.5 -51.167 68.5 -87.5s22.5 -72.5 22.5 -108.5c0 -34.667 -6.66699 -67.5 -20 -98.5s-31.666 -58.167 -54.999 -81.5s-50.5 -41.833 -81.5 -55.5s-63.833 -20.5 -98.5 -20.5c-35.333 0 -68.5 6.66699 -99.5 20
s-58.167 31.666 -81.5 54.999s-41.666 50.5 -54.999 81.5s-20 64.167 -20 99.5c0 19.333 6.16699 35.166 18.5 47.499s28.166 18.5 47.499 18.5c17.333 0 32.666 -6.16699 45.999 -18.5s20 -28.166 20 -47.499c0 -16.667 3 -32.5 9 -47.5s14.5 -28 25.5 -39
s24.167 -19.833 39.5 -26.5s32 -10 50 -10c17.333 0 33.333 3.16699 48 9.5s27.5 15.166 38.5 26.499s19.667 24.333 26 39s9.5 30.667 9.5 48c0 16.667 -3.33301 32.5 -10 47.5s-15.5 28 -26.5 39s-23.833 19.833 -38.5 26.5s-30.334 10 -47.001 10z" />
    <glyph glyph-name="acute" unicode="&#xb4;" horiz-adv-x="560" 
d="M480 1421l-200 -199.002c-18.667 -18.667 -42.667 -28 -72 -28c-30 0 -54.833 9.83301 -74.5 29.5s-29.5 44.5 -29.5 74.5c0 28.667 8.66699 52.334 26 71.001l200 199c21.333 20.667 46 31 74 31c30 0 54.833 -10.167 74.5 -30.5s29.5 -45.166 29.5 -74.499
c0 -30 -9.33301 -54.333 -28 -73z" />
    <glyph glyph-name="mu" unicode="&#xb5;" horiz-adv-x="1200" 
d="M288 522c0 -43.333 8.16797 -83.999 24.501 -121.999s38.666 -71.167 66.999 -99.5s61.5 -50.666 99.5 -66.999s78.667 -24.5 122 -24.5c42.667 0 83 8.16699 121 24.5s71.333 38.833 100 67.5s51.167 61.834 67.5 99.501s24.5 78.167 24.5 121.5v494
c0 14 2.66699 27.333 8 40s12.666 23.834 21.999 33.501s20.333 17.167 33 22.5s26.334 8 41.001 8s28.334 -2.66699 41.001 -8s23.667 -12.833 33 -22.5s16.833 -20.834 22.5 -33.501s8.5 -26 8.5 -40v-912c0 -14 -2.83301 -27.333 -8.5 -40s-13.167 -23.834 -22.5 -33.501
s-20.333 -17.167 -33 -22.5s-26.334 -8 -41.001 -8c-30 0 -54.667 10 -74 30s-29.333 44.333 -30 73c-46 -36 -94.667 -62.167 -146 -78.5s-107 -24.5 -167 -24.5c-120 0 -224.333 34.333 -313 103v-477c0 -14.667 -2.83301 -28.334 -8.5 -41.001
s-13.167 -23.834 -22.5 -33.501s-20.333 -17.167 -33 -22.5s-26.334 -8 -41.001 -8c-30 0 -54.833 10 -74.5 30s-29.5 45 -29.5 75v1390c0 14 2.66699 27.333 8 40s12.666 23.834 21.999 33.501s20.333 17.167 33 22.5s26.334 8 41.001 8s28.334 -2.66699 41.001 -8
s23.667 -12.833 33 -22.5s16.833 -20.834 22.5 -33.501s8.5 -26 8.5 -40v-494z" />
    <glyph glyph-name="paragraph" unicode="&#xb6;" horiz-adv-x="1120" 
d="M970 104c0 -14 -2.83008 -27.332 -8.49707 -39.999s-13.167 -23.834 -22.5 -33.501s-20.333 -17.167 -33 -22.5s-26.334 -8 -41.001 -8c-14 0 -27.333 2.66699 -40 8s-23.834 12.833 -33.501 22.5s-17.167 20.834 -22.5 33.501s-8 26 -8 40v1286h-95v-1286
c0 -14 -2.66699 -27.333 -8 -40s-12.666 -23.834 -21.999 -33.501s-20.333 -17.167 -33 -22.5s-26.334 -8 -41.001 -8s-28.334 2.66699 -41.001 8s-23.834 12.833 -33.501 22.5s-17.167 20.834 -22.5 33.501s-8 26 -8 40v679c-52.667 3.33301 -102 16.5 -148 39.5
s-86.167 53 -120.5 90s-61.333 79.5 -81 127.5s-29.5 98 -29.5 150c0 55.333 10.667 107.833 32 157.5s50.5 93.167 87.5 130.5s80.333 66.833 130 88.5s102.5 32.5 158.5 32.5h455c14.667 0 28.334 -2.83301 41.001 -8.5s23.667 -13.167 33 -22.5s16.833 -20.333 22.5 -33
s8.5 -26.334 8.5 -41.001c0 -24 -7 -45.167 -21 -63.5s-32.333 -30.5 -55 -36.5v-1290z" />
    <glyph glyph-name="periodcentered" unicode="&#xb7;" horiz-adv-x="400" 
d="M343 750c0 -39.333 -13.833 -72.833 -41.5 -100.5s-61.167 -41.5 -100.5 -41.5s-72.833 13.833 -100.5 41.5s-41.5 61.167 -41.5 100.5s13.833 72.833 41.5 100.5s61.167 41.5 100.5 41.5s72.833 -13.833 100.5 -41.5s41.5 -61.167 41.5 -100.5z" />
    <glyph glyph-name="periodcentered" unicode="&#x2219;" horiz-adv-x="400" 
d="M343 750c0 -39.333 -13.833 -72.833 -41.5 -100.5s-61.167 -41.5 -100.5 -41.5s-72.833 13.833 -100.5 41.5s-41.5 61.167 -41.5 100.5s13.833 72.833 41.5 100.5s61.167 41.5 100.5 41.5s72.833 -13.833 100.5 -41.5s41.5 -61.167 41.5 -100.5z" />
    <glyph glyph-name="cedilla" unicode="&#xb8;" horiz-adv-x="640" 
d="M293 82c20.667 18.667 45 27.999 73 27.999c30 0 54.833 -10.167 74.5 -30.5s29.5 -45.166 29.5 -74.499c0 -7.33301 -1 -15 -3 -23l-9 -35c84 -49.333 126 -115.333 126 -198c0 -64.667 -25.667 -119 -77 -163c-48.667 -43.333 -108.334 -65 -179.001 -65
c-42.667 0 -83.667 10.333 -123 31l-87 53c-30.667 24.667 -46 53.667 -46 87c0 29.333 9.83301 54.166 29.5 74.499s44.5 30.5 74.5 30.5c19.333 0.666992 38 -4.66602 56 -15.999l72 -45c8 -4 16 -6 24 -6c31.333 0 47 7.33301 47 22s-15 23 -45 25
c-30 0 -57.167 11.167 -81.5 33.5s-32.166 50.833 -23.499 85.5l40 139c4 15.333 13.333 31 28 47z" />
    <glyph glyph-name="uni00B9" unicode="&#xb9;" horiz-adv-x="480" 
d="M353 855c0 -19.333 -6.83496 -35.332 -20.502 -47.999s-29.167 -19 -46.5 -19s-32.666 6.33301 -45.999 19s-20 28.667 -20 48v588l-22 -9c-6 -2.66699 -14.333 -4 -25 -4c-19.333 0 -35.166 6.16699 -47.499 18.5s-18.5 28.166 -18.5 47.499
c0 12 3.83301 23.833 11.5 35.5s18.167 20.5 31.5 26.5l115 39c6.66699 2 13.667 3 21 3c17.333 0 32.833 -6.33301 46.5 -19s20.5 -28.667 20.5 -48v-678z" />
    <glyph glyph-name="ordmasculine" unicode="&#xba;" horiz-adv-x="640" 
d="M72 1194c0 64 5.66699 121 17 171s27.833 92.5 49.5 127.5s48.334 61.667 80.001 80s67.834 27.5 108.501 27.5c39.333 0 74.666 -9.16699 105.999 -27.5s58 -45 80 -80s38.833 -77.5 50.5 -127.5s17.5 -107 17.5 -171s-5.83301 -121 -17.5 -171
s-28.5 -92.5 -50.5 -127.5s-48.667 -61.667 -80 -80s-66.666 -27.5 -105.999 -27.5c-40.667 0 -76.834 9.16699 -108.501 27.5s-58.334 45 -80.001 80s-38.167 77.5 -49.5 127.5s-17 107 -17 171zM327 1468c-20 0 -37.6689 -7.16699 -53.002 -21.5s-28.166 -34 -38.499 -59
s-18.166 -54 -23.499 -87s-8 -68.5 -8 -106.5c0 -117.333 21.333 -200.333 64 -249l-2 1c16 -16.667 36.333 -25 61 -25c20.667 0 38.667 7 54 21s28 33.333 38 58s17.5 53.667 22.5 87s7.5 69 7.5 107c0 118.667 -21 201.667 -63 249v-1c-16 17.333 -35.667 26 -59 26z" />
    <glyph glyph-name="guillemotright" unicode="&#xbb;" horiz-adv-x="960" 
d="M882 609c8.66699 -17.333 12.998 -34.002 12.998 -50.002c0 -16.667 -5 -34.667 -15 -54l-221 -441c-10 -21.333 -23.667 -37.333 -41 -48s-35.666 -16 -54.999 -16c-14.667 0 -28.334 2.66699 -41.001 8s-23.667 12.833 -33 22.5s-16.666 20.834 -21.999 33.501
s-8 26 -8 40c0 16.667 3 31.334 9 44.001l205 412l-205 410c-6 13.333 -9.33301 28.333 -10 45c0.666992 30 10.834 54.833 30.501 74.5s44.5 29.5 74.5 29.5c21.333 0 40.333 -5.33301 57 -16s29.667 -26.667 39 -48zM499.998 608.998
c8.66699 -17.333 12.998 -34.002 12.998 -50.002c0 -16.667 -5 -34.667 -15 -54l-221 -441c-10 -21.333 -23.667 -37.333 -41 -48s-35.666 -16 -54.999 -16c-14.667 0 -28.334 2.66699 -41.001 8s-23.667 12.833 -33 22.5s-16.666 20.834 -21.999 33.501s-8 26 -8 40
c0 16.667 3 31.334 9 44.001l205 412l-205 410c-6 13.333 -9.33301 28.333 -10 45c0.666992 30 10.834 54.833 30.501 74.5s44.5 29.5 74.5 29.5c21.333 0 40.333 -5.33301 57 -16s29.667 -26.667 39 -48z" />
    <glyph glyph-name="onequarter" unicode="&#xbc;" horiz-adv-x="1440" 
d="M1189 1600c14.667 0 28.333 -2.83398 41 -8.50098s23.667 -13.167 33 -22.5s16.833 -20.333 22.5 -33s8.5 -26.334 8.5 -41.001c0 -20 -5.33301 -39 -16 -57l-926 -1387c-24 -34 -54 -51 -90 -51c-14.667 0 -28.334 2.66699 -41.001 8s-23.667 12.833 -33 22.5
s-16.666 20.834 -21.999 33.501s-8 26 -8 40c0 22.667 5 41.334 15 56.001l932 1398c18.667 28 46.667 42 84 42zM366.999 703.999c0 -20.667 -7.16797 -38.166 -21.501 -52.499s-32.166 -21.5 -53.499 -21.5c-20.667 0 -38.167 7.16699 -52.5 21.5s-21.5 31.833 -21.5 52.5
v717l-36 -10c-9.33301 -3.33301 -18 -5 -26 -5c-21.333 0 -39 7 -53 21s-21 31.667 -21 53c0 14.667 4 28.167 12 40.5s18.333 21.166 31 26.499l141 48c8.66699 3.33301 17.334 5 26.001 5c21.333 0 39.166 -7.16699 53.499 -21.5s21.5 -31.833 21.5 -52.5v-822zM1069 376
v281l-194 -281h194zM732.998 228c-21.333 0 -39 7.00098 -53 21.001s-21 31.667 -21 53c0 15.333 4.66699 29.666 14 42.999l409 592c14.667 20.667 35 31 61 31c21.333 0 39 -7 53 -21s21 -31.667 21 -53v-518h63c20.667 0 38.167 -7 52.5 -21s21.5 -31.667 21.5 -53
s-7.16699 -39 -21.5 -53s-31.833 -21 -52.5 -21h-63v-154c0 -21.333 -7 -39 -21 -53s-31.667 -21 -53 -21s-39 7 -53 21s-21 31.667 -21 53v154h-336z" />
    <glyph glyph-name="onehalf" unicode="&#xbd;" horiz-adv-x="1600" 
d="M1433 148c20 0 37.502 -7 52.502 -21s22.5 -31.667 22.5 -53s-7.5 -39 -22.5 -53s-32.5 -21 -52.5 -21h-456c-21.333 0 -39 7 -53 21s-21 31.667 -21 53c0 18.667 7 35.667 21 51l389 431c30.667 30.667 46 67.667 46 111c0 21.333 -4.16699 41.333 -12.5 60
s-19.5 35 -33.5 49s-30.333 25 -49 33s-38.334 12 -59.001 12c-21.333 0 -41.333 -4 -60 -12s-35 -19 -49 -33s-25 -30.333 -33 -49s-12 -38.667 -12 -60s-7 -39 -21 -53s-31.667 -21 -53 -21s-39 7 -53 21s-21 31.667 -21 53c0 41.333 8 80.333 24 117s37.667 68.667 65 96
s59.333 49 96 65s75.667 24 117 24c40.667 0 79.5 -8.16699 116.5 -24.5s69.167 -38.166 96.5 -65.499s49.166 -59.333 65.499 -96s24.5 -75.334 24.5 -116.001s-7.83301 -78.667 -23.5 -114s-37.5 -68.333 -65.5 -99l-275 -306h289zM1189 1600
c14.667 0 28.333 -2.83398 41 -8.50098s23.667 -13.167 33 -22.5s16.833 -20.333 22.5 -33s8.5 -26.334 8.5 -41.001c0 -20 -5.33301 -39 -16 -57l-926 -1387c-24 -34 -54 -51 -90 -51c-14.667 0 -28.334 2.66699 -41.001 8s-23.667 12.833 -33 22.5
s-16.666 20.834 -21.999 33.501s-8 26 -8 40c0 22.667 5 41.334 15 56.001l932 1398c18.667 28 46.667 42 84 42zM367.001 703.999c0 -20.667 -7.16797 -38.166 -21.501 -52.499s-32.166 -21.5 -53.499 -21.5c-20.667 0 -38.167 7.16699 -52.5 21.5s-21.5 31.833 -21.5 52.5
v717l-36 -10c-9.33301 -3.33301 -18 -5 -26 -5c-21.333 0 -39 7 -53 21s-21 31.667 -21 53c0 14.667 4 28.167 12 40.5s18.333 21.166 31 26.499l141 48c8.66699 3.33301 17.334 5 26.001 5c21.333 0 39.166 -7.16699 53.499 -21.5s21.5 -31.833 21.5 -52.5v-822z" />
    <glyph glyph-name="threequarters" unicode="&#xbe;" horiz-adv-x="1600" 
d="M385 1089c-21.333 0 -39.002 7.00391 -53.002 21.0039s-21 31.667 -21 53c0 19.333 7 36.333 21 51s31.667 22 53 22c14.667 0 28.5 2.83301 41.5 8.5s24.5 13.5 34.5 23.5s17.833 21.5 23.5 34.5s8.5 26.833 8.5 41.5c0 15.333 -3.16699 29.5 -9.5 42.5
s-14.5 24.333 -24.5 34s-21.5 17.334 -34.5 23.001s-26.167 8.5 -39.5 8.5c-14.667 0 -28.5 -2.83301 -41.5 -8.5s-24.5 -13.5 -34.5 -23.5s-17.833 -21.5 -23.5 -34.5s-8.5 -26.833 -8.5 -41.5c0 -10 -2 -19.5 -6 -28.5s-9.5 -16.833 -16.5 -23.5s-14.833 -12 -23.5 -16
s-18 -6 -28 -6c-20.667 0 -38.167 7.16699 -52.5 21.5s-21.5 31.833 -21.5 52.5c0 34.667 6.83301 67.5 20.5 98.5s32 58.167 55 81.5s50 41.833 81 55.5s64.167 20.5 99.5 20.5s68.5 -6.83301 99.5 -20.5s58 -32.334 81 -56.001s41.167 -51 54.5 -82s20 -63.5 20 -97.5
c0 -66 -22.333 -123.333 -67 -172c18 -18.667 34.167 -36.834 48.5 -54.501s26.166 -36 35.499 -55s16.5 -39 21.5 -60s7.5 -43.5 7.5 -67.5c0 -40.667 -8 -79.167 -24 -115.5s-37.833 -68.333 -65.5 -96s-59.667 -49.5 -96 -65.5s-74.833 -24 -115.5 -24
c-41.333 0 -80.166 8 -116.499 24s-68.166 37.667 -95.499 65s-49 59.166 -65 95.499s-24 75.166 -24 116.499c0 21.333 7 39 21 53s31.667 21 53 21s39 -7 53 -21s21 -31.667 21 -53s4 -41.333 12 -60s18.833 -34.834 32.5 -48.501s29.834 -24.334 48.501 -32.001
s38.667 -11.5 60 -11.5c20.667 0 40.167 4 58.5 12s34.5 19 48.5 33s25 30.167 33 48.5s12 37.833 12 58.5c0 22 -4 42.333 -12 61s-19 34.834 -33 48.501s-30.167 24.5 -48.5 32.5s-37.833 12 -58.5 12zM1343 1600c14.667 0 28.333 -2.83398 41 -8.50098
s23.667 -13.167 33 -22.5s16.833 -20.333 22.5 -33s8.5 -26.334 8.5 -41.001c0 -20 -5.33301 -39 -16 -57l-926 -1387c-24 -34 -54 -51 -90 -51c-14.667 0 -28.334 2.66699 -41.001 8s-23.667 12.833 -33 22.5s-16.666 20.834 -21.999 33.501s-8 26 -8 40
c0 22.667 5 41.334 15 56.001l932 1398c18.667 28 46.667 42 84 42zM1222 376.003v281l-194 -281h194zM885.997 228.003c-21.333 0 -39 7.00098 -53 21.001s-21 31.667 -21 53c0 15.333 4.66699 29.666 14 42.999l409 592c14.667 20.667 35 31 61 31c21.333 0 39 -7 53 -21
s21 -31.667 21 -53v-518h63c20.667 0 38.167 -7 52.5 -21s21.5 -31.667 21.5 -53s-7.16699 -39 -21.5 -53s-31.833 -21 -52.5 -21h-63v-154c0 -21.333 -7 -39 -21 -53s-31.667 -21 -53 -21s-39 7 -53 21s-21 31.667 -21 53v154h-336z" />
    <glyph glyph-name="questiondown" unicode="&#xbf;" horiz-adv-x="1120" 
d="M562 -271c38 0 73.667 7.16406 107 21.4971s62.5 33.833 87.5 58.5s44.667 53.667 59 87s21.5 69.333 21.5 108c0 14.667 2.83301 28.334 8.5 41.001s13.167 23.834 22.5 33.501s20.333 17.167 33 22.5s26.334 8 41.001 8c30 0 54.833 -10 74.5 -30s29.5 -45 29.5 -75
c0 -66.667 -12.833 -129.334 -38.5 -188.001s-60.5 -110 -104.5 -154s-95.333 -78.667 -154 -104s-121 -38 -187 -38s-128.333 13 -187 39s-110 61 -154 105s-78.833 95.333 -104.5 154s-38.5 120.667 -38.5 186c0 132 47.667 246.667 143 344l157 145
c53.333 53.333 80 118.333 80 195c0 30 9.83301 54.833 29.5 74.5s44.5 29.5 74.5 29.5s55 -9.83301 75 -29.5s30 -44.5 30 -74.5c0 -133.333 -47.667 -247.666 -143 -342.999l-157 -146c-53.333 -55.333 -80 -120.333 -80 -195c0 -37.333 7.33301 -72.666 22 -105.999
s34.5 -62.5 59.5 -87.5s54.167 -44.833 87.5 -59.5s68.666 -22 105.999 -22zM562 834.997c-39.333 0 -72.833 13.833 -100.5 41.5s-41.5 61.167 -41.5 100.5s13.833 72.833 41.5 100.5s61.167 41.5 100.5 41.5s72.833 -13.833 100.5 -41.5s41.5 -61.167 41.5 -100.5
s-13.833 -72.833 -41.5 -100.5s-61.167 -41.5 -100.5 -41.5z" />
    <glyph glyph-name="Agrave" unicode="&#xc0;" horiz-adv-x="1440" 
d="M897 752l-174 449l-174 -449h348zM88 154l533.999 1374c21.333 48 55 72 101 72c47.333 0 81 -24 101 -72l536 -1379c5.33301 -13.333 8 -27.666 8 -42.999c0 -29.333 -10.333 -54.333 -31 -75s-45.667 -31 -75 -31s-54 10.333 -74 31c-10.667 10.667 -18.667 22 -24 34
l-185 475h-512l-186 -475c-5.33301 -12 -13.333 -23.333 -24 -34c-20.667 -20.667 -45.667 -31 -75 -31s-54.166 10.333 -74.499 31s-30.5 45.667 -30.5 75c0 16 3.66699 32 11 48zM443.999 1974c0 29.333 9.83301 54.168 29.5 74.501s44.5 30.5 74.5 30.5
c28 0 52.667 -10.333 74 -31l200 -199c17.333 -18.667 26 -42.334 26 -71.001c0 -30 -9.83301 -54.833 -29.5 -74.5s-44.5 -29.5 -74.5 -29.5c-29.333 0 -53.333 9.33301 -72 28l-200 199c-18.667 18.667 -28 43 -28 73z" />
    <glyph glyph-name="Aacute" unicode="&#xc1;" horiz-adv-x="1440" 
d="M897 752l-174 449l-174 -449h348zM88 154l533.999 1374c21.333 48 55 72 101 72c47.333 0 81 -24 101 -72l536 -1379c5.33301 -13.333 8 -27.666 8 -42.999c0 -29.333 -10.333 -54.333 -31 -75s-45.667 -31 -75 -31s-54 10.333 -74 31c-10.667 10.667 -18.667 22 -24 34
l-185 475h-512l-186 -475c-5.33301 -12 -13.333 -23.333 -24 -34c-20.667 -20.667 -45.667 -31 -75 -31s-54.166 10.333 -74.499 31s-30.5 45.667 -30.5 75c0 16 3.66699 32 11 48zM986.999 1901l-200 -199.002c-18.667 -18.667 -42.667 -28 -72 -28
c-30 0 -54.833 9.83301 -74.5 29.5s-29.5 44.5 -29.5 74.5c0 28.667 8.66699 52.334 26 71.001l200 199c21.333 20.667 46 31 74 31c30 0 54.833 -10.167 74.5 -30.5s29.5 -45.166 29.5 -74.499c0 -30 -9.33301 -54.333 -28 -73z" />
    <glyph glyph-name="Acircumflex" unicode="&#xc2;" horiz-adv-x="1440" 
d="M897 752l-174 449l-174 -449h348zM88 154l533.999 1374c21.333 48 55 72 101 72c47.333 0 81 -24 101 -72l536 -1379c5.33301 -13.333 8 -27.666 8 -42.999c0 -29.333 -10.333 -54.333 -31 -75s-45.667 -31 -75 -31s-54 10.333 -74 31c-10.667 10.667 -18.667 22 -24 34
l-185 475h-512l-186 -475c-5.33301 -12 -13.333 -23.333 -24 -34c-20.667 -20.667 -45.667 -31 -75 -31s-54.166 10.333 -74.499 31s-30.5 45.667 -30.5 75c0 16 3.66699 32 11 48zM997.999 1913c33.333 -25.333 50 -55.333 50 -90c0 -30 -9.83301 -54.833 -29.5 -74.5
s-44.5 -29.5 -74.5 -29.5c-23.333 0 -45.333 7.33301 -66 22l-162 107l-162 -107c-20 -14.667 -42 -22 -66 -22c-30 0 -54.833 9.83301 -74.5 29.5s-29.5 44.5 -29.5 74.5c0 35.333 16.333 65.333 49 90l229 151c16.667 10.667 34.667 16 54 16s37.333 -5.33301 54 -16z" />
    <glyph glyph-name="Atilde" unicode="&#xc3;" horiz-adv-x="1440" 
d="M897 752l-174 449l-174 -449h348zM88 154l533.999 1374c21.333 48 55 72 101 72c47.333 0 81 -24 101 -72l536 -1379c5.33301 -13.333 8 -27.666 8 -42.999c0 -29.333 -10.333 -54.333 -31 -75s-45.667 -31 -75 -31s-54 10.333 -74 31c-10.667 10.667 -18.667 22 -24 34
l-185 475h-512l-186 -475c-5.33301 -12 -13.333 -23.333 -24 -34c-20.667 -20.667 -45.667 -31 -75 -31s-54.166 10.333 -74.499 31s-30.5 45.667 -30.5 75c0 16 3.66699 32 11 48zM568.999 1711c-25.333 0 -53.334 3.66797 -84.001 11.001s-59.5 18.333 -86.5 33
s-49.5 32.5 -67.5 53.5s-27 45.5 -27 73.5c0.666992 31.333 11 56.5 31 75.5s44.333 28.5 73 28.5c24 0 51 -11 81 -33s58 -33 84 -33c28.667 0 53 9 73 27c58 54.667 131 82 219 82c24.667 0 52.5 -3.83301 83.5 -11.5s59.833 -18.834 86.5 -33.501
s49.167 -32.667 67.5 -54s27.5 -45.333 27.5 -72c0 -30 -10.167 -54.833 -30.5 -74.5s-45.166 -29.5 -74.499 -29.5c-21.333 0 -47.833 11 -79.5 33s-59.5 33 -83.5 33c-27.333 0 -52 -9 -74 -27c-60 -54.667 -133 -82 -219 -82z" />
    <glyph glyph-name="Adieresis" unicode="&#xc4;" horiz-adv-x="1440" 
d="M897 752l-174 449l-174 -449h348zM88 154l533.999 1374c21.333 48 55 72 101 72c47.333 0 81 -24 101 -72l536 -1379c5.33301 -13.333 8 -27.666 8 -42.999c0 -29.333 -10.333 -54.333 -31 -75s-45.667 -31 -75 -31s-54 10.333 -74 31c-10.667 10.667 -18.667 22 -24 34
l-185 475h-512l-186 -475c-5.33301 -12 -13.333 -23.333 -24 -34c-20.667 -20.667 -45.667 -31 -75 -31s-54.166 10.333 -74.499 31s-30.5 45.667 -30.5 75c0 16 3.66699 32 11 48zM618.999 1839c0 -34 -12 -63 -36 -87s-53 -36 -87 -36s-63 12 -87 36s-36 53 -36 87
s12 63 36 87s53 36 87 36s63 -12 87 -36s36 -53 36 -87zM1074 1839c0 -34 -12 -63 -36 -87s-53 -36 -87 -36s-63 12 -87 36s-36 53 -36 87s12 63 36 87s53 36 87 36s63 -12 87 -36s36 -53 36 -87z" />
    <glyph glyph-name="Aring" unicode="&#xc5;" horiz-adv-x="1440" 
d="M897 752l-174 449l-174 -449h348zM88 154l533.999 1374c21.333 48 55 72 101 72c47.333 0 81 -24 101 -72l536 -1379c5.33301 -13.333 8 -27.666 8 -42.999c0 -29.333 -10.333 -54.333 -31 -75s-45.667 -31 -75 -31s-54 10.333 -74 31c-10.667 10.667 -18.667 22 -24 34
l-185 475h-512l-186 -475c-5.33301 -12 -13.333 -23.333 -24 -34c-20.667 -20.667 -45.667 -31 -75 -31s-54.166 10.333 -74.499 31s-30.5 45.667 -30.5 75c0 16 3.66699 32 11 48zM937.999 1859c0 -30 -5.83301 -58.334 -17.5 -85.001s-27.5 -50 -47.5 -70
s-43.167 -35.833 -69.5 -47.5s-54.5 -17.5 -84.5 -17.5s-58.333 5.66699 -85 17s-50 27 -70 47s-35.833 43.333 -47.5 70s-17.5 55.334 -17.5 86.001c0 30 5.83301 58.333 17.5 85s27.5 50 47.5 70s43.333 35.833 70 47.5s55 17.5 85 17.5s58.333 -6 85 -18s50 -28 70 -48
s35.667 -43.333 47 -70s17 -54.667 17 -84zM718.999 1926c-18.667 0 -34.667 -6.66699 -48 -20s-20 -29 -20 -47c0 -18.667 6.66699 -34.5 20 -47.5s29.333 -19.5 48 -19.5c18 0 33.5 6.5 46.5 19.5s19.5 28.833 19.5 47.5c0 18 -6.5 33.667 -19.5 47s-28.5 20 -46.5 20z
" />
    <glyph glyph-name="AE" unicode="&#xc6;" horiz-adv-x="1760" 
d="M851 1084l-141 -255h141v255zM1574 1600c14.667 0 28.502 -2.66602 41.502 -7.99902s24.333 -12.833 34 -22.5s17.167 -21 22.5 -34s8 -26.833 8 -41.5c0 -15.333 -2.66699 -29.333 -8 -42s-12.833 -23.834 -22.5 -33.501s-21 -17.167 -34 -22.5s-26.833 -8 -41.5 -8
h-511v-559h357c14.667 0 28.5 -2.66699 41.5 -8s24.333 -12.833 34 -22.5s17.167 -21 22.5 -34s8 -26.833 8 -41.5c0 -15.333 -2.66699 -29.333 -8 -42s-12.833 -23.834 -22.5 -33.501s-21 -17.167 -34 -22.5s-26.833 -8 -41.5 -8h-357v-405h511
c14.667 0 28.5 -2.66699 41.5 -8s24.333 -12.833 34 -22.5s17.167 -21 22.5 -34s8 -26.833 8 -41.5c0 -15.333 -2.66699 -29.333 -8 -42s-12.833 -23.834 -22.5 -33.501s-21 -17.167 -34 -22.5s-26.833 -8 -41.5 -8h-617c-15.333 0 -29.333 2.66699 -42 8
s-23.834 12.833 -33.501 22.5s-17.167 20.834 -22.5 33.501s-8 26.667 -8 42v511h-259l-317 -570c-21.333 -31.333 -51 -47 -89 -47c-15.333 0 -29.333 2.66699 -42 8s-23.834 12.833 -33.501 22.5s-17.167 20.834 -22.5 33.501s-8 26.667 -8 42c0 19.333 5 37 15 53
l772 1391c18 33.333 48 50 90 50h617z" />
    <glyph glyph-name="Ccedilla" unicode="&#xc7;" horiz-adv-x="1480" 
d="M1308 360c14.667 0 28.3311 -2.83203 40.998 -8.49902s23.834 -13.167 33.501 -22.5s17.334 -20.5 23.001 -33.5s8.5 -26.833 8.5 -41.5c0 -28 -11 -53.333 -33 -76c-148.667 -118.667 -316.334 -178 -503.001 -178c-221.333 0 -410 78 -566 234s-234 344.667 -234 566
c0 220.667 78 409 234 565c156.667 156.667 345.334 235 566.001 235c189.333 0 360.333 -62.333 513 -187c18.667 -18 28 -42.333 28 -73c0 -15.333 -2.66699 -29.333 -8 -42s-12.833 -23.834 -22.5 -33.501s-21 -17.167 -34 -22.5s-26.833 -8 -41.5 -8
c-26 0 -50.333 10 -73 30c-50.667 40 -106.5 70.667 -167.5 92s-125.833 32 -194.5 32c-162.667 0 -301.667 -57.667 -417 -173c-114 -114 -171 -252.333 -171 -415c0 -163.333 57 -302 171 -416c114.667 -114.667 253.667 -172 417 -172c139.333 0 262 43 368 129
c17.333 12 38 18.333 62 19zM718.997 82.001c20.667 18.667 45 27.999 73 27.999c30 0 54.833 -10.167 74.5 -30.5s29.5 -45.166 29.5 -74.499c0 -7.33301 -1 -15 -3 -23l-9 -35c84 -49.333 126 -115.333 126 -198c0 -64.667 -25.667 -119 -77 -163
c-48.667 -43.333 -108.334 -65 -179.001 -65c-42.667 0 -83.667 10.333 -123 31l-87 53c-30.667 24.667 -46 53.667 -46 87c0 29.333 9.83301 54.166 29.5 74.499s44.5 30.5 74.5 30.5c19.333 0.666992 38 -4.66602 56 -15.999l72 -45c8 -4 16 -6 24 -6
c31.333 0 47 7.33301 47 22s-15 23 -45 25c-30 0 -57.167 11.167 -81.5 33.5s-32.166 50.833 -23.499 85.5l40 139c4 15.333 13.333 31 28 47z" />
    <glyph glyph-name="Egrave" unicode="&#xc8;" 
d="M1108 212c29.333 0 54.333 -10.334 75 -31.001s31 -45.667 31 -75s-10.333 -54.333 -31 -75s-45.667 -31 -75 -31h-925c-15.333 0 -29.333 2.66699 -42 8s-23.834 12.833 -33.501 22.5s-17.167 20.834 -22.5 33.501s-8 26.667 -8 42v1388c0 14.667 2.66699 28.5 8 41.5
s12.833 24.333 22.5 34s20.834 17.167 33.501 22.5s26.667 8 42 8h925c29.333 0 54.333 -10.333 75 -31s31 -45.667 31 -75s-10.333 -54.333 -31 -75s-45.667 -31 -75 -31h-819v-482h588c29.333 0 54.333 -10.333 75 -31s31 -45.667 31 -75s-10.333 -54.333 -31 -75
s-45.667 -31 -75 -31h-588v-482h819zM366 1974c0 29.333 9.83301 54.168 29.5 74.501s44.5 30.5 74.5 30.5c28 0 52.667 -10.333 74 -31l200 -199c17.333 -18.667 26 -42.334 26 -71.001c0 -30 -9.83301 -54.833 -29.5 -74.5s-44.5 -29.5 -74.5 -29.5
c-29.333 0 -53.333 9.33301 -72 28l-200 199c-18.667 18.667 -28 43 -28 73z" />
    <glyph glyph-name="Eacute" unicode="&#xc9;" 
d="M1108 212c29.333 0 54.333 -10.334 75 -31.001s31 -45.667 31 -75s-10.333 -54.333 -31 -75s-45.667 -31 -75 -31h-925c-15.333 0 -29.333 2.66699 -42 8s-23.834 12.833 -33.501 22.5s-17.167 20.834 -22.5 33.501s-8 26.667 -8 42v1388c0 14.667 2.66699 28.5 8 41.5
s12.833 24.333 22.5 34s20.834 17.167 33.501 22.5s26.667 8 42 8h925c29.333 0 54.333 -10.333 75 -31s31 -45.667 31 -75s-10.333 -54.333 -31 -75s-45.667 -31 -75 -31h-819v-482h588c29.333 0 54.333 -10.333 75 -31s31 -45.667 31 -75s-10.333 -54.333 -31 -75
s-45.667 -31 -75 -31h-588v-482h819zM909 1901l-200 -199.002c-18.667 -18.667 -42.667 -28 -72 -28c-30 0 -54.833 9.83301 -74.5 29.5s-29.5 44.5 -29.5 74.5c0 28.667 8.66699 52.334 26 71.001l200 199c21.333 20.667 46 31 74 31c30 0 54.833 -10.167 74.5 -30.5
s29.5 -45.166 29.5 -74.499c0 -30 -9.33301 -54.333 -28 -73z" />
    <glyph glyph-name="Ecircumflex" unicode="&#xca;" 
d="M1108 212c29.333 0 54.333 -10.334 75 -31.001s31 -45.667 31 -75s-10.333 -54.333 -31 -75s-45.667 -31 -75 -31h-925c-15.333 0 -29.333 2.66699 -42 8s-23.834 12.833 -33.501 22.5s-17.167 20.834 -22.5 33.501s-8 26.667 -8 42v1388c0 14.667 2.66699 28.5 8 41.5
s12.833 24.333 22.5 34s20.834 17.167 33.501 22.5s26.667 8 42 8h925c29.333 0 54.333 -10.333 75 -31s31 -45.667 31 -75s-10.333 -54.333 -31 -75s-45.667 -31 -75 -31h-819v-482h588c29.333 0 54.333 -10.333 75 -31s31 -45.667 31 -75s-10.333 -54.333 -31 -75
s-45.667 -31 -75 -31h-588v-482h819zM918 1913c33.333 -25.333 50 -55.333 50 -90c0 -30 -9.83301 -54.833 -29.5 -74.5s-44.5 -29.5 -74.5 -29.5c-23.333 0 -45.333 7.33301 -66 22l-162 107l-162 -107c-20 -14.667 -42 -22 -66 -22c-30 0 -54.833 9.83301 -74.5 29.5
s-29.5 44.5 -29.5 74.5c0 35.333 16.333 65.333 49 90l229 151c16.667 10.667 34.667 16 54 16s37.333 -5.33301 54 -16z" />
    <glyph glyph-name="Edieresis" unicode="&#xcb;" 
d="M1108 212c29.333 0 54.333 -10.334 75 -31.001s31 -45.667 31 -75s-10.333 -54.333 -31 -75s-45.667 -31 -75 -31h-925c-15.333 0 -29.333 2.66699 -42 8s-23.834 12.833 -33.501 22.5s-17.167 20.834 -22.5 33.501s-8 26.667 -8 42v1388c0 14.667 2.66699 28.5 8 41.5
s12.833 24.333 22.5 34s20.834 17.167 33.501 22.5s26.667 8 42 8h925c29.333 0 54.333 -10.333 75 -31s31 -45.667 31 -75s-10.333 -54.333 -31 -75s-45.667 -31 -75 -31h-819v-482h588c29.333 0 54.333 -10.333 75 -31s31 -45.667 31 -75s-10.333 -54.333 -31 -75
s-45.667 -31 -75 -31h-588v-482h819zM541 1839c0 -34 -12 -63 -36 -87s-53 -36 -87 -36s-63 12 -87 36s-36 53 -36 87s12 63 36 87s53 36 87 36s63 -12 87 -36s36 -53 36 -87zM996 1839c0 -34 -12 -63 -36 -87s-53 -36 -87 -36s-63 12 -87 36s-36 53 -36 87s12 63 36 87
s53 36 87 36s63 -12 87 -36s36 -53 36 -87z" />
    <glyph glyph-name="Igrave" unicode="&#xcc;" horiz-adv-x="480" 
d="M355 106c0 -29.333 -10.333 -54.333 -31 -75s-45.667 -31 -75 -31s-54.333 10.333 -75 31s-31 45.667 -31 75v1388c0 29.333 10.333 54.333 31 75s45.667 31 75 31s54.333 -10.333 75 -31s31 -45.667 31 -75v-1388zM3 1974c0 29.333 9.83301 54.168 29.5 74.501
s44.5 30.5 74.5 30.5c28 0 52.667 -10.333 74 -31l200 -199c17.333 -18.667 26 -42.334 26 -71.001c0 -30 -9.83301 -54.833 -29.5 -74.5s-44.5 -29.5 -74.5 -29.5c-29.333 0 -53.333 9.33301 -72 28l-200 199c-18.667 18.667 -28 43 -28 73z" />
    <glyph glyph-name="Iacute" unicode="&#xcd;" horiz-adv-x="480" 
d="M355 106c0 -29.333 -10.333 -54.333 -31 -75s-45.667 -31 -75 -31s-54.333 10.333 -75 31s-31 45.667 -31 75v1388c0 29.333 10.333 54.333 31 75s45.667 31 75 31s54.333 -10.333 75 -31s31 -45.667 31 -75v-1388zM454 1901l-200 -199.002
c-18.667 -18.667 -42.667 -28 -72 -28c-30 0 -54.833 9.83301 -74.5 29.5s-29.5 44.5 -29.5 74.5c0 28.667 8.66699 52.334 26 71.001l200 199c21.333 20.667 46 31 74 31c30 0 54.833 -10.167 74.5 -30.5s29.5 -45.166 29.5 -74.499c0 -30 -9.33301 -54.333 -28 -73z" />
    <glyph glyph-name="Icircumflex" unicode="&#xce;" horiz-adv-x="480" 
d="M355 106c0 -29.333 -10.333 -54.333 -31 -75s-45.667 -31 -75 -31s-54.333 10.333 -75 31s-31 45.667 -31 75v1388c0 29.333 10.333 54.333 31 75s45.667 31 75 31s54.333 -10.333 75 -31s31 -45.667 31 -75v-1388zM537 1913c33.333 -25.333 50 -55.333 50 -90
c0 -30 -9.83301 -54.833 -29.5 -74.5s-44.5 -29.5 -74.5 -29.5c-23.333 0 -45.333 7.33301 -66 22l-162 107l-162 -107c-20 -14.667 -42 -22 -66 -22c-30 0 -54.833 9.83301 -74.5 29.5s-29.5 44.5 -29.5 74.5c0 35.333 16.333 65.333 49 90l229 151
c16.667 10.667 34.667 16 54 16s37.333 -5.33301 54 -16z" />
    <glyph glyph-name="Idieresis" unicode="&#xcf;" horiz-adv-x="480" 
d="M355 106c0 -29.333 -10.333 -54.333 -31 -75s-45.667 -31 -75 -31s-54.333 10.333 -75 31s-31 45.667 -31 75v1388c0 29.333 10.333 54.333 31 75s45.667 31 75 31s54.333 -10.333 75 -31s31 -45.667 31 -75v-1388zM148 1839c0 -34 -12 -63 -36 -87s-53 -36 -87 -36
s-63 12 -87 36s-36 53 -36 87s12 63 36 87s53 36 87 36s63 -12 87 -36s36 -53 36 -87zM603 1839c0 -34 -12 -63 -36 -87s-53 -36 -87 -36s-63 12 -87 36s-36 53 -36 87s12 63 36 87s53 36 87 36s63 -12 87 -36s36 -53 36 -87z" />
    <glyph glyph-name="Eth" unicode="&#xd0;" horiz-adv-x="1520" 
d="M230 906v588c0 14.667 2.83301 28.5 8.5 41.5s13.334 24.167 23.001 33.5s20.834 16.833 33.501 22.5s26.334 8.5 41.001 8.5h309c220 0 408.333 -78.333 565 -235c78.667 -78.667 137.5 -164.5 176.5 -257.5s58.5 -195.5 58.5 -307.5
c0 -220.667 -78.333 -409.334 -235 -566.001c-156 -156 -344.333 -234 -565 -234h-309c-14.667 0 -28.334 2.83301 -41.001 8.5s-23.834 13.167 -33.501 22.5s-17.334 20.5 -23.001 33.5s-8.5 26.833 -8.5 41.5v588h-124c-15.333 0 -29.333 2.66699 -42 8
s-23.834 12.833 -33.501 22.5s-17.167 20.834 -22.5 33.501s-8 26.667 -8 42c0 14.667 2.66699 28.5 8 41.5s12.833 24.333 22.5 34s20.834 17.167 33.501 22.5s26.667 8 42 8h124zM442 906l279.999 0.00195312c30 0 55.167 -10.167 75.5 -30.5s30.5 -45.5 30.5 -75.5
c0 -15.333 -2.66699 -29.333 -8 -42s-12.833 -23.834 -22.5 -33.501s-21 -17.167 -34 -22.5s-26.833 -8 -41.5 -8h-280v-482h203c162 0 300.333 57.333 415 172c58 58 101.333 121.167 130 189.5s43 143.833 43 226.5c0 161.333 -57.667 299.666 -173 414.999
s-253.666 173 -414.999 173h-203v-482z" />
    <glyph glyph-name="Ntilde" unicode="&#xd1;" horiz-adv-x="1440" 
d="M77 106v1388c0 14.667 2.66699 28.5 8 41.5s12.833 24.333 22.5 34s20.834 17.167 33.501 22.5s26.667 8 42 8c31.333 0 58.666 -13 81.999 -39l892 -1147v1080c0 29.333 10.333 54.333 31 75s45.667 31 75 31s54.333 -10.333 75 -31s31 -45.667 31 -75v-1388
c0 -15.333 -2.66699 -29.333 -8 -42s-12.833 -23.834 -22.5 -33.501s-21 -17.167 -34 -22.5s-26.833 -8 -41.5 -8c-31.333 -0 -58.333 12.333 -81 37l-893 1147v-1078c0 -29.333 -10.333 -54.333 -31 -75s-45.667 -31 -75 -31s-54.333 10.333 -75 31s-31 45.667 -31 75z
M569 1711c-25.333 0 -53.334 3.66797 -84.001 11.001s-59.5 18.333 -86.5 33s-49.5 32.5 -67.5 53.5s-27 45.5 -27 73.5c0.666992 31.333 11 56.5 31 75.5s44.333 28.5 73 28.5c24 0 51 -11 81 -33s58 -33 84 -33c28.667 0 53 9 73 27c58 54.667 131 82 219 82
c24.667 0 52.5 -3.83301 83.5 -11.5s59.833 -18.834 86.5 -33.501s49.167 -32.667 67.5 -54s27.5 -45.333 27.5 -72c0 -30 -10.167 -54.833 -30.5 -74.5s-45.166 -29.5 -74.499 -29.5c-21.333 0 -47.833 11 -79.5 33s-59.5 33 -83.5 33c-27.333 0 -52 -9 -74 -27
c-60 -54.667 -133 -82 -219 -82z" />
    <glyph glyph-name="Ograve" unicode="&#xd2;" horiz-adv-x="1760" 
d="M880 1388c-82.667 0 -158.169 -14.333 -226.502 -43s-131.5 -72 -189.5 -130s-101.167 -121 -129.5 -189s-42.5 -143.333 -42.5 -226c0 -162.667 57.333 -301.334 172 -416.001s253.334 -172 416.001 -172s301.334 57.333 416.001 172s172 253.334 172 416.001
c0 162 -57.333 300.333 -172 415c-115.333 115.333 -254 173 -416 173zM1680 800c0 -220.667 -78.334 -409.334 -235.001 -566.001c-156 -156 -344.333 -234 -565 -234c-221.333 0 -410 78 -566 234s-234 344.667 -234 566c0 220.667 78 409 234 565
c156.667 156.667 345.334 235 566.001 235c220 0 408.333 -78.333 565 -235c78.667 -78.667 137.5 -164.667 176.5 -258s58.5 -195.666 58.5 -306.999zM683.997 1974c0 29.333 9.83301 54.168 29.5 74.501s44.5 30.5 74.5 30.5c28 0 52.667 -10.333 74 -31l200 -199
c17.333 -18.667 26 -42.334 26 -71.001c0 -30 -9.83301 -54.833 -29.5 -74.5s-44.5 -29.5 -74.5 -29.5c-29.333 0 -53.333 9.33301 -72 28l-200 199c-18.667 18.667 -28 43 -28 73z" />
    <glyph glyph-name="Oacute" unicode="&#xd3;" horiz-adv-x="1760" 
d="M880 1388c-82.667 0 -158.169 -14.333 -226.502 -43s-131.5 -72 -189.5 -130s-101.167 -121 -129.5 -189s-42.5 -143.333 -42.5 -226c0 -162.667 57.333 -301.334 172 -416.001s253.334 -172 416.001 -172s301.334 57.333 416.001 172s172 253.334 172 416.001
c0 162 -57.333 300.333 -172 415c-115.333 115.333 -254 173 -416 173zM1680 800c0 -220.667 -78.334 -409.334 -235.001 -566.001c-156 -156 -344.333 -234 -565 -234c-221.333 0 -410 78 -566 234s-234 344.667 -234 566c0 220.667 78 409 234 565
c156.667 156.667 345.334 235 566.001 235c220 0 408.333 -78.333 565 -235c78.667 -78.667 137.5 -164.667 176.5 -258s58.5 -195.666 58.5 -306.999zM1077 1901l-200 -199.002c-18.667 -18.667 -42.667 -28 -72 -28c-30 0 -54.833 9.83301 -74.5 29.5
s-29.5 44.5 -29.5 74.5c0 28.667 8.66699 52.334 26 71.001l200 199c21.333 20.667 46 31 74 31c30 0 54.833 -10.167 74.5 -30.5s29.5 -45.166 29.5 -74.499c0 -30 -9.33301 -54.333 -28 -73z" />
    <glyph glyph-name="Ocircumflex" unicode="&#xd4;" horiz-adv-x="1760" 
d="M880 1388c-82.667 0 -158.169 -14.333 -226.502 -43s-131.5 -72 -189.5 -130s-101.167 -121 -129.5 -189s-42.5 -143.333 -42.5 -226c0 -162.667 57.333 -301.334 172 -416.001s253.334 -172 416.001 -172s301.334 57.333 416.001 172s172 253.334 172 416.001
c0 162 -57.333 300.333 -172 415c-115.333 115.333 -254 173 -416 173zM1680 800c0 -220.667 -78.334 -409.334 -235.001 -566.001c-156 -156 -344.333 -234 -565 -234c-221.333 0 -410 78 -566 234s-234 344.667 -234 566c0 220.667 78 409 234 565
c156.667 156.667 345.334 235 566.001 235c220 0 408.333 -78.333 565 -235c78.667 -78.667 137.5 -164.667 176.5 -258s58.5 -195.666 58.5 -306.999zM1158 1913c33.333 -25.333 50 -55.333 50 -90c0 -30 -9.83301 -54.833 -29.5 -74.5s-44.5 -29.5 -74.5 -29.5
c-23.333 0 -45.333 7.33301 -66 22l-162 107l-162 -107c-20 -14.667 -42 -22 -66 -22c-30 0 -54.833 9.83301 -74.5 29.5s-29.5 44.5 -29.5 74.5c0 35.333 16.333 65.333 49 90l229 151c16.667 10.667 34.667 16 54 16s37.333 -5.33301 54 -16z" />
    <glyph glyph-name="Otilde" unicode="&#xd5;" horiz-adv-x="1760" 
d="M880 1388c-82.667 0 -158.169 -14.333 -226.502 -43s-131.5 -72 -189.5 -130s-101.167 -121 -129.5 -189s-42.5 -143.333 -42.5 -226c0 -162.667 57.333 -301.334 172 -416.001s253.334 -172 416.001 -172s301.334 57.333 416.001 172s172 253.334 172 416.001
c0 162 -57.333 300.333 -172 415c-115.333 115.333 -254 173 -416 173zM1680 800c0 -220.667 -78.334 -409.334 -235.001 -566.001c-156 -156 -344.333 -234 -565 -234c-221.333 0 -410 78 -566 234s-234 344.667 -234 566c0 220.667 78 409 234 565
c156.667 156.667 345.334 235 566.001 235c220 0 408.333 -78.333 565 -235c78.667 -78.667 137.5 -164.667 176.5 -258s58.5 -195.666 58.5 -306.999zM728.997 1711c-25.333 0 -53.334 3.66797 -84.001 11.001s-59.5 18.333 -86.5 33s-49.5 32.5 -67.5 53.5
s-27 45.5 -27 73.5c0.666992 31.333 11 56.5 31 75.5s44.333 28.5 73 28.5c24 0 51 -11 81 -33s58 -33 84 -33c28.667 0 53 9 73 27c58 54.667 131 82 219 82c24.667 0 52.5 -3.83301 83.5 -11.5s59.833 -18.834 86.5 -33.501s49.167 -32.667 67.5 -54
s27.5 -45.333 27.5 -72c0 -30 -10.167 -54.833 -30.5 -74.5s-45.166 -29.5 -74.499 -29.5c-21.333 0 -47.833 11 -79.5 33s-59.5 33 -83.5 33c-27.333 0 -52 -9 -74 -27c-60 -54.667 -133 -82 -219 -82z" />
    <glyph glyph-name="Odieresis" unicode="&#xd6;" horiz-adv-x="1760" 
d="M880 1388c-82.667 0 -158.169 -14.333 -226.502 -43s-131.5 -72 -189.5 -130s-101.167 -121 -129.5 -189s-42.5 -143.333 -42.5 -226c0 -162.667 57.333 -301.334 172 -416.001s253.334 -172 416.001 -172s301.334 57.333 416.001 172s172 253.334 172 416.001
c0 162 -57.333 300.333 -172 415c-115.333 115.333 -254 173 -416 173zM1680 800c0 -220.667 -78.334 -409.334 -235.001 -566.001c-156 -156 -344.333 -234 -565 -234c-221.333 0 -410 78 -566 234s-234 344.667 -234 566c0 220.667 78 409 234 565
c156.667 156.667 345.334 235 566.001 235c220 0 408.333 -78.333 565 -235c78.667 -78.667 137.5 -164.667 176.5 -258s58.5 -195.666 58.5 -306.999zM778.997 1839c0 -34 -12 -63 -36 -87s-53 -36 -87 -36s-63 12 -87 36s-36 53 -36 87s12 63 36 87s53 36 87 36
s63 -12 87 -36s36 -53 36 -87zM1234 1839c0 -34 -12 -63 -36 -87s-53 -36 -87 -36s-63 12 -87 36s-36 53 -36 87s12 63 36 87s53 36 87 36s63 -12 87 -36s36 -53 36 -87z" />
    <glyph glyph-name="multiply" unicode="&#xd7;" horiz-adv-x="960" 
d="M336 712l-231.999 230.999c-18.667 20.667 -28 45 -28 73c0 14 2.66699 27.333 8 40s12.666 23.834 21.999 33.501s20.333 17.167 33 22.5s26.334 8 41.001 8c29.333 0 54.333 -10.333 75 -31l229 -229l229 229c20.667 20.667 45.667 31 75 31
c14 0 27.333 -2.66699 40 -8s23.834 -12.833 33.501 -22.5s17.167 -20.834 22.5 -33.501s8 -26 8 -40c0 -27.333 -9.66699 -51.666 -29 -72.999l-231 -231l231 -231c19.333 -20.667 29 -45 29 -73c0 -14.667 -2.66699 -28.334 -8 -41.001s-12.833 -23.667 -22.5 -33
s-20.834 -16.666 -33.501 -21.999s-26 -8 -40 -8c-30 0 -54.333 9 -73 27l-231 233l-233 -233c-18.667 -18 -42.334 -27 -71.001 -27c-30 0 -54.833 9.83301 -74.5 29.5s-29.5 44.5 -29.5 74.5c0 30.667 9.33301 55 28 73z" />
    <glyph glyph-name="Oslash" unicode="&#xd8;" horiz-adv-x="1760" 
d="M1516 1286c56 -70.667 97.333 -146 124 -226s40 -166.667 40 -260c0 -220.667 -78.333 -409.334 -235 -566.001c-156 -156 -344.333 -234 -565 -234c-93.333 0 -180 13.333 -260 40s-155.333 68 -226 124l-133 -134c-21.333 -20 -46.333 -30 -75 -30
c-15.333 0 -29.333 2.66699 -42 8s-23.834 12.833 -33.501 22.5s-17.167 20.834 -22.5 33.501s-8 26.667 -8 42c0 29.333 9.33301 53.333 28 72l136 136c-56 70.667 -97.333 146 -124 226s-40 166.667 -40 260c0 220.667 78 409 234 565
c156.667 156.667 345.334 235 566.001 235c93.333 0 180 -13.333 260 -40s155.333 -68 226 -124l133 133c20.667 20.667 45.667 31 75 31c14.667 0 28.5 -2.66699 41.5 -8s24.333 -12.833 34 -22.5s17.167 -21 22.5 -34s8 -26.833 8 -41.5c0 -26 -8 -48.333 -24 -67z
M1215 1285c-97.333 68.667 -209 103 -335 103c-82.667 0 -158.167 -14.333 -226.5 -43s-131.5 -72 -189.5 -130s-101.167 -121 -129.5 -189s-42.5 -143.333 -42.5 -226c0 -126 34.333 -237.333 103 -334zM546 315c96.667 -68.667 207.999 -103 333.999 -103
c162.667 0 301.334 57.333 416.001 172s172 253.334 172 416.001c0 123.333 -34.667 234.666 -104 333.999z" />
    <glyph glyph-name="Ugrave" unicode="&#xd9;" 
d="M288 1494l0.00390625 -925.002c0 -48.667 9.33301 -94.667 28 -138s44 -81.166 76 -113.499s69.667 -58 113 -77s89.666 -28.5 138.999 -28.5s95.666 9.33301 138.999 28s81.166 44.334 113.499 77.001s57.833 70.5 76.5 113.5s28 89.167 28 138.5v925
c0 29.333 10.333 54.333 31 75s45.667 31 75 31s54.333 -10.333 75 -31s31 -45.667 31 -75v-925c0 -52 -6.83301 -102 -20.5 -150s-32.834 -93.167 -57.501 -135.5s-54.334 -80.833 -89.001 -115.5s-73.167 -64.5 -115.5 -89.5s-87.666 -44.333 -135.999 -58
s-98.5 -20.5 -150.5 -20.5c-157.333 0 -291 55.667 -401 167c-111.333 111.333 -167 245.333 -167 402v925c0 29.333 10.333 54.333 31 75s45.667 31 75 31s54.333 -10.333 75 -31s31 -45.667 31 -75zM364.004 1974c0 29.333 9.83301 54.168 29.5 74.501
s44.5 30.5 74.5 30.5c28 0 52.667 -10.333 74 -31l200 -199c17.333 -18.667 26 -42.334 26 -71.001c0 -30 -9.83301 -54.833 -29.5 -74.5s-44.5 -29.5 -74.5 -29.5c-29.333 0 -53.333 9.33301 -72 28l-200 199c-18.667 18.667 -28 43 -28 73z" />
    <glyph glyph-name="Uacute" unicode="&#xda;" 
d="M288 1494l0.00390625 -925.002c0 -48.667 9.33301 -94.667 28 -138s44 -81.166 76 -113.499s69.667 -58 113 -77s89.666 -28.5 138.999 -28.5s95.666 9.33301 138.999 28s81.166 44.334 113.499 77.001s57.833 70.5 76.5 113.5s28 89.167 28 138.5v925
c0 29.333 10.333 54.333 31 75s45.667 31 75 31s54.333 -10.333 75 -31s31 -45.667 31 -75v-925c0 -52 -6.83301 -102 -20.5 -150s-32.834 -93.167 -57.501 -135.5s-54.334 -80.833 -89.001 -115.5s-73.167 -64.5 -115.5 -89.5s-87.666 -44.333 -135.999 -58
s-98.5 -20.5 -150.5 -20.5c-157.333 0 -291 55.667 -401 167c-111.333 111.333 -167 245.333 -167 402v925c0 29.333 10.333 54.333 31 75s45.667 31 75 31s54.333 -10.333 75 -31s31 -45.667 31 -75zM907.004 1901l-200 -199.002c-18.667 -18.667 -42.667 -28 -72 -28
c-30 0 -54.833 9.83301 -74.5 29.5s-29.5 44.5 -29.5 74.5c0 28.667 8.66699 52.334 26 71.001l200 199c21.333 20.667 46 31 74 31c30 0 54.833 -10.167 74.5 -30.5s29.5 -45.166 29.5 -74.499c0 -30 -9.33301 -54.333 -28 -73z" />
    <glyph glyph-name="Ucircumflex" unicode="&#xdb;" 
d="M288 1494l0.00390625 -925.002c0 -48.667 9.33301 -94.667 28 -138s44 -81.166 76 -113.499s69.667 -58 113 -77s89.666 -28.5 138.999 -28.5s95.666 9.33301 138.999 28s81.166 44.334 113.499 77.001s57.833 70.5 76.5 113.5s28 89.167 28 138.5v925
c0 29.333 10.333 54.333 31 75s45.667 31 75 31s54.333 -10.333 75 -31s31 -45.667 31 -75v-925c0 -52 -6.83301 -102 -20.5 -150s-32.834 -93.167 -57.501 -135.5s-54.334 -80.833 -89.001 -115.5s-73.167 -64.5 -115.5 -89.5s-87.666 -44.333 -135.999 -58
s-98.5 -20.5 -150.5 -20.5c-157.333 0 -291 55.667 -401 167c-111.333 111.333 -167 245.333 -167 402v925c0 29.333 10.333 54.333 31 75s45.667 31 75 31s54.333 -10.333 75 -31s31 -45.667 31 -75zM918.004 1913c33.333 -25.333 50 -55.333 50 -90
c0 -30 -9.83301 -54.833 -29.5 -74.5s-44.5 -29.5 -74.5 -29.5c-23.333 0 -45.333 7.33301 -66 22l-162 107l-162 -107c-20 -14.667 -42 -22 -66 -22c-30 0 -54.833 9.83301 -74.5 29.5s-29.5 44.5 -29.5 74.5c0 35.333 16.333 65.333 49 90l229 151
c16.667 10.667 34.667 16 54 16s37.333 -5.33301 54 -16z" />
    <glyph glyph-name="Udieresis" unicode="&#xdc;" 
d="M288 1494l0.00390625 -925.002c0 -48.667 9.33301 -94.667 28 -138s44 -81.166 76 -113.499s69.667 -58 113 -77s89.666 -28.5 138.999 -28.5s95.666 9.33301 138.999 28s81.166 44.334 113.499 77.001s57.833 70.5 76.5 113.5s28 89.167 28 138.5v925
c0 29.333 10.333 54.333 31 75s45.667 31 75 31s54.333 -10.333 75 -31s31 -45.667 31 -75v-925c0 -52 -6.83301 -102 -20.5 -150s-32.834 -93.167 -57.501 -135.5s-54.334 -80.833 -89.001 -115.5s-73.167 -64.5 -115.5 -89.5s-87.666 -44.333 -135.999 -58
s-98.5 -20.5 -150.5 -20.5c-157.333 0 -291 55.667 -401 167c-111.333 111.333 -167 245.333 -167 402v925c0 29.333 10.333 54.333 31 75s45.667 31 75 31s54.333 -10.333 75 -31s31 -45.667 31 -75zM539.004 1839c0 -34 -12 -63 -36 -87s-53 -36 -87 -36s-63 12 -87 36
s-36 53 -36 87s12 63 36 87s53 36 87 36s63 -12 87 -36s36 -53 36 -87zM994.004 1839c0 -34 -12 -63 -36 -87s-53 -36 -87 -36s-63 12 -87 36s-36 53 -36 87s12 63 36 87s53 36 87 36s63 -12 87 -36s36 -53 36 -87z" />
    <glyph glyph-name="Yacute" unicode="&#xdd;" 
d="M268 1556l376.001 -563l376 563c20.667 29.333 49.667 44 87 44c29.333 0 54.166 -10.333 74.499 -31s30.5 -45.667 30.5 -75c0 -24 -5.33301 -44 -16 -60l-446 -666v-662c0 -29.333 -10.333 -54.333 -31 -75s-45.667 -31 -75 -31c-28.667 -0 -53.5 10.333 -74.5 31
s-31.5 45.667 -31.5 75v662l-445 666c-11.333 17.333 -17 37.333 -17 60c0 29.333 10.333 54.333 31 75s45.667 31 75 31c37.333 0 66 -14.667 86 -44zM907.001 1901l-200 -199.002c-18.667 -18.667 -42.667 -28 -72 -28c-30 0 -54.833 9.83301 -74.5 29.5
s-29.5 44.5 -29.5 74.5c0 28.667 8.66699 52.334 26 71.001l200 199c21.333 20.667 46 31 74 31c30 0 54.833 -10.167 74.5 -30.5s29.5 -45.166 29.5 -74.499c0 -30 -9.33301 -54.333 -28 -73z" />
    <glyph glyph-name="Thorn" unicode="&#xde;" 
d="M76 1494c0 14.667 2.66504 28.5029 7.99805 41.5029s12.833 24.333 22.5 34s20.834 17.167 33.501 22.5s26.667 8 42 8c14.667 0 28.5 -2.66699 41.5 -8s24.333 -12.833 34 -22.5s17.167 -21 22.5 -34s8 -26.833 8 -41.5v-202h434c66.667 0 129.834 -13 189.501 -39
s111.834 -61.333 156.501 -106s80 -96.834 106 -156.501s39 -123.167 39 -190.5c0 -68 -13.167 -131.833 -39.5 -191.5s-61.833 -111.834 -106.5 -156.501s-96.667 -79.834 -156 -105.501s-122.333 -38.5 -189 -38.5h-434v-202c0 -15.333 -2.66699 -29.333 -8 -42
s-12.833 -23.834 -22.5 -33.501s-21 -17.167 -34 -22.5s-26.833 -8 -41.5 -8c-15.333 0 -29.333 2.66699 -42 8s-23.834 12.833 -33.501 22.5s-17.167 20.834 -22.5 33.501s-8 26.667 -8 42v1388zM721.998 520.003c38.667 0 75 7.33301 109 22s63.5 34.667 88.5 60
s44.833 55 59.5 89s22 70.333 22 109s-7.33301 75 -22 109s-34.667 63.667 -60 89s-55 45.333 -89 60s-70 22 -108 22h-434v-560h434z" />
    <glyph glyph-name="germandbls" unicode="&#xdf;" horiz-adv-x="1120" 
d="M290 105c0 -14 -2.82812 -27.335 -8.49512 -40.002s-13.334 -24 -23.001 -34s-20.834 -17.667 -33.501 -23s-26.667 -8 -42 -8c-14.667 0 -28.334 2.66699 -41.001 8s-23.834 13 -33.501 23s-17.167 21.333 -22.5 34s-8 26 -8 40v1078c0 56 10.833 109.333 32.5 160
s51.167 94.834 88.5 132.501s81.333 67.5 132 89.5s104.334 33 161.001 33s110 -11 160 -33s93.667 -51.833 131 -89.5s67 -81.667 89 -132s33 -103.833 33 -160.5c0 -101.333 -31.667 -189 -95 -263c-11.333 -17.333 -17 -36.333 -17 -57c0 -38 13 -64 39 -78
c36 -19.333 68.167 -42.333 96.5 -69s52.166 -56 71.499 -88s34.166 -66.167 44.499 -102.5s15.5 -73.5 15.5 -111.5c0 -56.667 -11 -110.167 -33 -160.5s-51.833 -94.166 -89.5 -131.499s-81.5 -67 -131.5 -89s-103.333 -33 -160 -33
c-114.667 0 -212.334 40.667 -293.001 122c-22.667 22 -34 47.667 -34 77c0 14 2.83301 27.5 8.5 40.5s13.167 24.333 22.5 34s20.333 17.167 33 22.5s26.667 8 42 8c28 0 54 -10.667 78 -32c40 -40 87.667 -60 143 -60c26.667 0 52.334 5.33301 77.001 16
s46.167 25.167 64.5 43.5s33 39.666 44 63.999s16.5 50.5 16.5 78.5c0 56.667 -19.667 104.667 -59 144v-1c-19.333 16.667 -41.333 33.334 -66 50.001s-43 31.334 -55 44.001c-60 58.667 -90 129.667 -90 213c0 75.333 25.667 142.333 77 201
c25.333 31.333 38 70.666 38 117.999c0 28 -5.33301 54.333 -16 79s-25.334 46.167 -44.001 64.5s-40.167 32.833 -64.5 43.5s-49.833 16 -76.5 16c-28 0 -54.333 -5.16699 -79 -15.5s-46.167 -24.666 -64.5 -42.999s-32.666 -39.833 -42.999 -64.5
s-15.5 -51.334 -15.5 -80.001v-1078z" />
    <glyph glyph-name="agrave" unicode="&#xe0;" 
d="M640 911c-49.333 0 -95.333 -9.3291 -138 -27.9961s-79.667 -43.834 -111 -75.501s-56.166 -68.834 -74.499 -111.501s-27.5 -88 -27.5 -136s9.16699 -93.333 27.5 -136s43.166 -79.834 74.499 -111.501s68.333 -56.834 111 -75.501s88.667 -28 138 -28
c48.667 0 94.334 9.33301 137.001 28s79.834 44 111.501 76s56.667 69.167 75 111.5s27.5 87.5 27.5 135.5s-9.16699 93.167 -27.5 135.5s-43.333 79.5 -75 111.5s-68.834 57.333 -111.501 76s-88.334 28 -137.001 28zM991 104.004v20c-50 -40 -104.333 -70.667 -163 -92
s-121.334 -32 -188.001 -32c-154.667 0 -286.667 54.667 -396 164s-164 241.333 -164 396s54.667 286.667 164 396s241.333 164 396 164c153.333 0 285.333 -54.667 396 -164c109.333 -109.333 164 -241.333 164 -396v-456c0 -28.667 -10.167 -53.167 -30.5 -73.5
s-44.833 -30.5 -73.5 -30.5c-29.333 0 -54.166 10.167 -74.499 30.5s-30.5 44.833 -30.5 73.5zM402 1494c0 29.333 9.83301 54.168 29.5 74.501s44.5 30.5 74.5 30.5c28 0 52.667 -10.333 74 -31l200 -199c17.333 -18.667 26 -42.334 26 -71.001
c0 -30 -9.83301 -54.833 -29.5 -74.5s-44.5 -29.5 -74.5 -29.5c-29.333 0 -53.333 9.33301 -72 28l-200 199c-18.667 18.667 -28 43 -28 73z" />
    <glyph glyph-name="aacute" unicode="&#xe1;" 
d="M640 911c-49.333 0 -95.333 -9.3291 -138 -27.9961s-79.667 -43.834 -111 -75.501s-56.166 -68.834 -74.499 -111.501s-27.5 -88 -27.5 -136s9.16699 -93.333 27.5 -136s43.166 -79.834 74.499 -111.501s68.333 -56.834 111 -75.501s88.667 -28 138 -28
c48.667 0 94.334 9.33301 137.001 28s79.834 44 111.501 76s56.667 69.167 75 111.5s27.5 87.5 27.5 135.5s-9.16699 93.167 -27.5 135.5s-43.333 79.5 -75 111.5s-68.834 57.333 -111.501 76s-88.334 28 -137.001 28zM991 104.004v20c-50 -40 -104.333 -70.667 -163 -92
s-121.334 -32 -188.001 -32c-154.667 0 -286.667 54.667 -396 164s-164 241.333 -164 396s54.667 286.667 164 396s241.333 164 396 164c153.333 0 285.333 -54.667 396 -164c109.333 -109.333 164 -241.333 164 -396v-456c0 -28.667 -10.167 -53.167 -30.5 -73.5
s-44.833 -30.5 -73.5 -30.5c-29.333 0 -54.166 10.167 -74.499 30.5s-30.5 44.833 -30.5 73.5zM856 1421l-200 -199.002c-18.667 -18.667 -42.667 -28 -72 -28c-30 0 -54.833 9.83301 -74.5 29.5s-29.5 44.5 -29.5 74.5c0 28.667 8.66699 52.334 26 71.001l200 199
c21.333 20.667 46 31 74 31c30 0 54.833 -10.167 74.5 -30.5s29.5 -45.166 29.5 -74.499c0 -30 -9.33301 -54.333 -28 -73z" />
    <glyph glyph-name="acircumflex" unicode="&#xe2;" 
d="M640 911c-49.333 0 -95.333 -9.3291 -138 -27.9961s-79.667 -43.834 -111 -75.501s-56.166 -68.834 -74.499 -111.501s-27.5 -88 -27.5 -136s9.16699 -93.333 27.5 -136s43.166 -79.834 74.499 -111.501s68.333 -56.834 111 -75.501s88.667 -28 138 -28
c48.667 0 94.334 9.33301 137.001 28s79.834 44 111.501 76s56.667 69.167 75 111.5s27.5 87.5 27.5 135.5s-9.16699 93.167 -27.5 135.5s-43.333 79.5 -75 111.5s-68.834 57.333 -111.501 76s-88.334 28 -137.001 28zM991 104.004v20c-50 -40 -104.333 -70.667 -163 -92
s-121.334 -32 -188.001 -32c-154.667 0 -286.667 54.667 -396 164s-164 241.333 -164 396s54.667 286.667 164 396s241.333 164 396 164c153.333 0 285.333 -54.667 396 -164c109.333 -109.333 164 -241.333 164 -396v-456c0 -28.667 -10.167 -53.167 -30.5 -73.5
s-44.833 -30.5 -73.5 -30.5c-29.333 0 -54.166 10.167 -74.499 30.5s-30.5 44.833 -30.5 73.5zM918 1433c33.333 -25.333 50 -55.333 50 -90c0 -30 -9.83301 -54.833 -29.5 -74.5s-44.5 -29.5 -74.5 -29.5c-23.333 0 -45.333 7.33301 -66 22l-162 107l-162 -107
c-20 -14.667 -42 -22 -66 -22c-30 0 -54.833 9.83301 -74.5 29.5s-29.5 44.5 -29.5 74.5c0 35.333 16.333 65.333 49 90l229 151c16.667 10.667 34.667 16 54 16s37.333 -5.33301 54 -16z" />
    <glyph glyph-name="atilde" unicode="&#xe3;" 
d="M640 911c-49.333 0 -95.333 -9.3291 -138 -27.9961s-79.667 -43.834 -111 -75.501s-56.166 -68.834 -74.499 -111.501s-27.5 -88 -27.5 -136s9.16699 -93.333 27.5 -136s43.166 -79.834 74.499 -111.501s68.333 -56.834 111 -75.501s88.667 -28 138 -28
c48.667 0 94.334 9.33301 137.001 28s79.834 44 111.501 76s56.667 69.167 75 111.5s27.5 87.5 27.5 135.5s-9.16699 93.167 -27.5 135.5s-43.333 79.5 -75 111.5s-68.834 57.333 -111.501 76s-88.334 28 -137.001 28zM991 104.004v20c-50 -40 -104.333 -70.667 -163 -92
s-121.334 -32 -188.001 -32c-154.667 0 -286.667 54.667 -396 164s-164 241.333 -164 396s54.667 286.667 164 396s241.333 164 396 164c153.333 0 285.333 -54.667 396 -164c109.333 -109.333 164 -241.333 164 -396v-456c0 -28.667 -10.167 -53.167 -30.5 -73.5
s-44.833 -30.5 -73.5 -30.5c-29.333 0 -54.166 10.167 -74.499 30.5s-30.5 44.833 -30.5 73.5zM496 1231c-25.333 0 -53.334 3.66797 -84.001 11.001s-59.5 18.333 -86.5 33s-49.5 32.5 -67.5 53.5s-27 45.5 -27 73.5c0.666992 31.333 11 56.5 31 75.5s44.333 28.5 73 28.5
c24 0 51 -11 81 -33s58 -33 84 -33c28.667 0 53 9 73 27c58 54.667 131 82 219 82c24.667 0 52.5 -3.83301 83.5 -11.5s59.833 -18.834 86.5 -33.501s49.167 -32.667 67.5 -54s27.5 -45.333 27.5 -72c0 -30 -10.167 -54.833 -30.5 -74.5s-45.166 -29.5 -74.499 -29.5
c-21.333 0 -47.833 11 -79.5 33s-59.5 33 -83.5 33c-27.333 0 -52 -9 -74 -27c-60 -54.667 -133 -82 -219 -82z" />
    <glyph glyph-name="adieresis" unicode="&#xe4;" 
d="M640 911c-49.333 0 -95.333 -9.3291 -138 -27.9961s-79.667 -43.834 -111 -75.501s-56.166 -68.834 -74.499 -111.501s-27.5 -88 -27.5 -136s9.16699 -93.333 27.5 -136s43.166 -79.834 74.499 -111.501s68.333 -56.834 111 -75.501s88.667 -28 138 -28
c48.667 0 94.334 9.33301 137.001 28s79.834 44 111.501 76s56.667 69.167 75 111.5s27.5 87.5 27.5 135.5s-9.16699 93.167 -27.5 135.5s-43.333 79.5 -75 111.5s-68.834 57.333 -111.501 76s-88.334 28 -137.001 28zM991 104.004v20c-50 -40 -104.333 -70.667 -163 -92
s-121.334 -32 -188.001 -32c-154.667 0 -286.667 54.667 -396 164s-164 241.333 -164 396s54.667 286.667 164 396s241.333 164 396 164c153.333 0 285.333 -54.667 396 -164c109.333 -109.333 164 -241.333 164 -396v-456c0 -28.667 -10.167 -53.167 -30.5 -73.5
s-44.833 -30.5 -73.5 -30.5c-29.333 0 -54.166 10.167 -74.499 30.5s-30.5 44.833 -30.5 73.5zM539 1359c0 -34 -12 -63 -36 -87s-53 -36 -87 -36s-63 12 -87 36s-36 53 -36 87s12 63 36 87s53 36 87 36s63 -12 87 -36s36 -53 36 -87zM994 1359c0 -34 -12 -63 -36 -87
s-53 -36 -87 -36s-63 12 -87 36s-36 53 -36 87s12 63 36 87s53 36 87 36s63 -12 87 -36s36 -53 36 -87z" />
    <glyph glyph-name="aring" unicode="&#xe5;" 
d="M640 911c-49.333 0 -95.333 -9.3291 -138 -27.9961s-79.667 -43.834 -111 -75.501s-56.166 -68.834 -74.499 -111.501s-27.5 -88 -27.5 -136s9.16699 -93.333 27.5 -136s43.166 -79.834 74.499 -111.501s68.333 -56.834 111 -75.501s88.667 -28 138 -28
c48.667 0 94.334 9.33301 137.001 28s79.834 44 111.501 76s56.667 69.167 75 111.5s27.5 87.5 27.5 135.5s-9.16699 93.167 -27.5 135.5s-43.333 79.5 -75 111.5s-68.834 57.333 -111.501 76s-88.334 28 -137.001 28zM991 104.004v20c-50 -40 -104.333 -70.667 -163 -92
s-121.334 -32 -188.001 -32c-154.667 0 -286.667 54.667 -396 164s-164 241.333 -164 396s54.667 286.667 164 396s241.333 164 396 164c153.333 0 285.333 -54.667 396 -164c109.333 -109.333 164 -241.333 164 -396v-456c0 -28.667 -10.167 -53.167 -30.5 -73.5
s-44.833 -30.5 -73.5 -30.5c-29.333 0 -54.166 10.167 -74.499 30.5s-30.5 44.833 -30.5 73.5zM859 1379c0 -30 -5.83301 -58.334 -17.5 -85.001s-27.5 -50 -47.5 -70s-43.167 -35.833 -69.5 -47.5s-54.5 -17.5 -84.5 -17.5s-58.333 5.66699 -85 17s-50 27 -70 47
s-35.833 43.333 -47.5 70s-17.5 55.334 -17.5 86.001c0 30 5.83301 58.333 17.5 85s27.5 50 47.5 70s43.333 35.833 70 47.5s55 17.5 85 17.5s58.333 -6 85 -18s50 -28 70 -48s35.667 -43.333 47 -70s17 -54.667 17 -84zM640 1446c-18.667 0 -34.667 -6.66699 -48 -20
s-20 -29 -20 -47c0 -18.667 6.66699 -34.5 20 -47.5s29.333 -19.5 48 -19.5c18 0 33.5 6.5 46.5 19.5s19.5 28.833 19.5 47.5c0 18 -6.5 33.667 -19.5 47s-28.5 20 -46.5 20z" />
    <glyph glyph-name="ae" unicode="&#xe6;" horiz-adv-x="2240" 
d="M652 911c-48.667 0 -94.334 -9.16699 -137.001 -27.5s-79.834 -43.333 -111.501 -75s-56.667 -68.834 -75 -111.501s-27.5 -88.334 -27.5 -137.001s9.16699 -94.334 27.5 -137.001s43.333 -79.834 75 -111.501s68.834 -56.667 111.501 -75s88.334 -27.5 137.001 -27.5
s94.334 9.16699 137.001 27.5s79.834 43.333 111.501 75s56.667 68.834 75 111.501s27.5 88.334 27.5 137.001s-9.16699 94.334 -27.5 137.001s-43.333 79.834 -75 111.501s-68.834 56.667 -111.501 75s-88.334 27.5 -137.001 27.5zM1900 664
c-11.333 36.667 -28.167 70.333 -50.5 101s-48.5 56.667 -78.5 78s-62.667 38 -98 50s-72 18 -110 18c-37.333 0 -74 -6 -110 -18s-69 -28.833 -99 -50.5s-56.167 -47.667 -78.5 -78s-38.833 -63.833 -49.5 -100.5h674zM1212 103.999
c0 -14 -2.66113 -27.335 -7.99414 -40.002s-12.833 -23.834 -22.5 -33.501s-20.834 -17.167 -33.501 -22.5s-26 -8 -40 -8c-14.667 0 -28.334 2.66699 -41.001 8s-23.834 12.833 -33.501 22.5s-17.167 20.834 -22.5 33.501s-8 26 -8 40v20
c-50 -40 -104.333 -70.667 -163 -92s-121.334 -32 -188.001 -32c-154.667 0 -286.667 54.667 -396 164s-164 241.333 -164 396s54.667 286.667 164 396s241.333 164 396 164c94 0 177.833 -19.5 251.5 -58.5s141.834 -97.167 204.501 -174.5
c32 38.667 64.833 72.5 98.5 101.5s69 53.333 106 73s76.167 34.334 117.5 44.001s85.666 14.5 132.999 14.5c154.667 0 286.667 -54.667 396 -164s164 -241.333 164 -396c0 -30 -9.83301 -54.833 -29.5 -74.5s-44.5 -29.5 -74.5 -29.5h-793
c12 -38 29.167 -72.167 51.5 -102.5s48.333 -56.166 78 -77.499s62.167 -37.833 97.5 -49.5s72 -17.5 110 -17.5c44 0 84.333 6.66699 121 20s70.667 33.333 102 60c21.333 17.333 44.333 26 69 26c29.333 0 54.166 -9.83301 74.499 -29.5s30.5 -44.5 30.5 -74.5
s-10.333 -55 -31 -75c-103.333 -90.667 -225.333 -136 -366 -136c-66.667 0 -129.334 10.667 -188.001 32s-113 52 -163 92v-20z" />
    <glyph glyph-name="ccedilla" unicode="&#xe7;" horiz-adv-x="1120" 
d="M932 317c30 0 54.833 -9.83105 74.5 -29.498s29.5 -44.5 29.5 -74.5c0 -29.333 -11 -55 -33 -77c-103.333 -90.667 -225 -136 -365 -136c-154.667 0 -286.667 54.667 -396 164s-164 241.333 -164 396s54.667 286.667 164 396s241.333 164 396 164
c140.667 0 262.334 -45.333 365.001 -136c24 -21.333 36 -47.666 36 -78.999c0 -30 -9.83301 -55 -29.5 -75s-44.5 -30 -74.5 -30c-25.333 0 -48 8 -68 24c-34 28.667 -69.667 50.334 -107 65.001s-78 22 -122 22c-48.667 0 -94.334 -9.16699 -137.001 -27.5
s-80 -43.333 -112 -75s-57.167 -68.834 -75.5 -111.501s-27.5 -88.334 -27.5 -137.001s9.16699 -94.334 27.5 -137.001s43.5 -79.834 75.5 -111.501s69.333 -56.667 112 -75s88.334 -27.5 137.001 -27.5c44 0 84.667 7.16699 122 21.5s72.666 35.833 105.999 64.5
c18.667 14 40.667 21.333 66 22zM530 82.002c20.667 18.667 45 27.999 73 27.999c30 0 54.833 -10.167 74.5 -30.5s29.5 -45.166 29.5 -74.499c0 -7.33301 -1 -15 -3 -23l-9 -35c84 -49.333 126 -115.333 126 -198c0 -64.667 -25.667 -119 -77 -163
c-48.667 -43.333 -108.334 -65 -179.001 -65c-42.667 0 -83.667 10.333 -123 31l-87 53c-30.667 24.667 -46 53.667 -46 87c0 29.333 9.83301 54.166 29.5 74.499s44.5 30.5 74.5 30.5c19.333 0.666992 38 -4.66602 56 -15.999l72 -45c8 -4 16 -6 24 -6
c31.333 0 47 7.33301 47 22s-15 23 -45 25c-30 0 -57.167 11.167 -81.5 33.5s-32.166 50.833 -23.499 85.5l40 139c4 15.333 13.333 31 28 47z" />
    <glyph glyph-name="egrave" unicode="&#xe8;" 
d="M977 664c-11.333 36.667 -28.166 70.167 -50.499 100.5s-48.333 56.333 -78 78s-62.334 38.5 -98.001 50.5s-72.5 18 -110.5 18s-75 -6 -111 -18s-69 -28.833 -99 -50.5s-56 -47.667 -78 -78s-38.333 -63.833 -49 -100.5h674zM932 315
c30 0 54.8301 -9.83496 74.4971 -29.502s29.5 -44.5 29.5 -74.5c0 -29.333 -10 -54.333 -30 -75c-103.333 -90.667 -225.333 -136 -366 -136c-154.667 0 -286.667 54.667 -396 164s-164 241.333 -164 396s54.667 286.667 164 396s241.333 164 396 164
c153.333 0 285.333 -54.667 396 -164c54.667 -54 95.667 -114.167 123 -180.5s41 -138.166 41 -215.499c0 -30 -10.167 -54.833 -30.5 -74.5s-45.166 -29.5 -74.499 -29.5h-792c11.333 -36.667 28 -70.167 50 -100.5s47.833 -56.333 77.5 -78s62.334 -38.5 98.001 -50.5
s72.834 -18 111.501 -18c44 0 84.333 6.66699 121 20s70.667 33.333 102 60c20 16.667 43 25.334 69 26.001zM400.997 1494c0 29.333 9.83301 54.168 29.5 74.501s44.5 30.5 74.5 30.5c28 0 52.667 -10.333 74 -31l200 -199c17.333 -18.667 26 -42.334 26 -71.001
c0 -30 -9.83301 -54.833 -29.5 -74.5s-44.5 -29.5 -74.5 -29.5c-29.333 0 -53.333 9.33301 -72 28l-200 199c-18.667 18.667 -28 43 -28 73z" />
    <glyph glyph-name="eacute" unicode="&#xe9;" 
d="M977 664c-11.333 36.667 -28.166 70.167 -50.499 100.5s-48.333 56.333 -78 78s-62.334 38.5 -98.001 50.5s-72.5 18 -110.5 18s-75 -6 -111 -18s-69 -28.833 -99 -50.5s-56 -47.667 -78 -78s-38.333 -63.833 -49 -100.5h674zM932 315
c30 0 54.8301 -9.83496 74.4971 -29.502s29.5 -44.5 29.5 -74.5c0 -29.333 -10 -54.333 -30 -75c-103.333 -90.667 -225.333 -136 -366 -136c-154.667 0 -286.667 54.667 -396 164s-164 241.333 -164 396s54.667 286.667 164 396s241.333 164 396 164
c153.333 0 285.333 -54.667 396 -164c54.667 -54 95.667 -114.167 123 -180.5s41 -138.166 41 -215.499c0 -30 -10.167 -54.833 -30.5 -74.5s-45.166 -29.5 -74.499 -29.5h-792c11.333 -36.667 28 -70.167 50 -100.5s47.833 -56.333 77.5 -78s62.334 -38.5 98.001 -50.5
s72.834 -18 111.501 -18c44 0 84.333 6.66699 121 20s70.667 33.333 102 60c20 16.667 43 25.334 69 26.001zM855.997 1421l-200 -199.002c-18.667 -18.667 -42.667 -28 -72 -28c-30 0 -54.833 9.83301 -74.5 29.5s-29.5 44.5 -29.5 74.5c0 28.667 8.66699 52.334 26 71.001
l200 199c21.333 20.667 46 31 74 31c30 0 54.833 -10.167 74.5 -30.5s29.5 -45.166 29.5 -74.499c0 -30 -9.33301 -54.333 -28 -73z" />
    <glyph glyph-name="ecircumflex" unicode="&#xea;" 
d="M977 664c-11.333 36.667 -28.166 70.167 -50.499 100.5s-48.333 56.333 -78 78s-62.334 38.5 -98.001 50.5s-72.5 18 -110.5 18s-75 -6 -111 -18s-69 -28.833 -99 -50.5s-56 -47.667 -78 -78s-38.333 -63.833 -49 -100.5h674zM932 315
c30 0 54.8301 -9.83496 74.4971 -29.502s29.5 -44.5 29.5 -74.5c0 -29.333 -10 -54.333 -30 -75c-103.333 -90.667 -225.333 -136 -366 -136c-154.667 0 -286.667 54.667 -396 164s-164 241.333 -164 396s54.667 286.667 164 396s241.333 164 396 164
c153.333 0 285.333 -54.667 396 -164c54.667 -54 95.667 -114.167 123 -180.5s41 -138.166 41 -215.499c0 -30 -10.167 -54.833 -30.5 -74.5s-45.166 -29.5 -74.499 -29.5h-792c11.333 -36.667 28 -70.167 50 -100.5s47.833 -56.333 77.5 -78s62.334 -38.5 98.001 -50.5
s72.834 -18 111.501 -18c44 0 84.333 6.66699 121 20s70.667 33.333 102 60c20 16.667 43 25.334 69 26.001zM917.997 1433c33.333 -25.333 50 -55.333 50 -90c0 -30 -9.83301 -54.833 -29.5 -74.5s-44.5 -29.5 -74.5 -29.5c-23.333 0 -45.333 7.33301 -66 22l-162 107
l-162 -107c-20 -14.667 -42 -22 -66 -22c-30 0 -54.833 9.83301 -74.5 29.5s-29.5 44.5 -29.5 74.5c0 35.333 16.333 65.333 49 90l229 151c16.667 10.667 34.667 16 54 16s37.333 -5.33301 54 -16z" />
    <glyph glyph-name="edieresis" unicode="&#xeb;" 
d="M977 664c-11.333 36.667 -28.166 70.167 -50.499 100.5s-48.333 56.333 -78 78s-62.334 38.5 -98.001 50.5s-72.5 18 -110.5 18s-75 -6 -111 -18s-69 -28.833 -99 -50.5s-56 -47.667 -78 -78s-38.333 -63.833 -49 -100.5h674zM932 315
c30 0 54.8301 -9.83496 74.4971 -29.502s29.5 -44.5 29.5 -74.5c0 -29.333 -10 -54.333 -30 -75c-103.333 -90.667 -225.333 -136 -366 -136c-154.667 0 -286.667 54.667 -396 164s-164 241.333 -164 396s54.667 286.667 164 396s241.333 164 396 164
c153.333 0 285.333 -54.667 396 -164c54.667 -54 95.667 -114.167 123 -180.5s41 -138.166 41 -215.499c0 -30 -10.167 -54.833 -30.5 -74.5s-45.166 -29.5 -74.499 -29.5h-792c11.333 -36.667 28 -70.167 50 -100.5s47.833 -56.333 77.5 -78s62.334 -38.5 98.001 -50.5
s72.834 -18 111.501 -18c44 0 84.333 6.66699 121 20s70.667 33.333 102 60c20 16.667 43 25.334 69 26.001zM538.997 1359c0 -34 -12 -63 -36 -87s-53 -36 -87 -36s-63 12 -87 36s-36 53 -36 87s12 63 36 87s53 36 87 36s63 -12 87 -36s36 -53 36 -87zM993.997 1359
c0 -34 -12 -63 -36 -87s-53 -36 -87 -36s-63 12 -87 36s-36 53 -36 87s12 63 36 87s53 36 87 36s63 -12 87 -36s36 -53 36 -87z" />
    <glyph glyph-name="igrave" unicode="&#xec;" horiz-adv-x="480" 
d="M143 105v910c0 29.333 10.167 54.166 30.5 74.499s44.833 30.5 73.5 30.5s53.167 -10.167 73.5 -30.5s30.833 -45.166 31.5 -74.499v-910c-0.666992 -29.333 -11.167 -54.166 -31.5 -74.499s-44.833 -30.5 -73.5 -30.5s-53.167 10.167 -73.5 30.5
s-30.5 45.166 -30.5 74.499zM10 1494c0 29.333 9.83301 54.168 29.5 74.501s44.5 30.5 74.5 30.5c28 0 52.667 -10.333 74 -31l200 -199c17.333 -18.667 26 -42.334 26 -71.001c0 -30 -9.83301 -54.833 -29.5 -74.5s-44.5 -29.5 -74.5 -29.5
c-29.333 0 -53.333 9.33301 -72 28l-200 199c-18.667 18.667 -28 43 -28 73z" />
    <glyph glyph-name="iacute" unicode="&#xed;" horiz-adv-x="480" 
d="M143 105v910c0 29.333 10.167 54.166 30.5 74.499s44.833 30.5 73.5 30.5s53.167 -10.167 73.5 -30.5s30.833 -45.166 31.5 -74.499v-910c-0.666992 -29.333 -11.167 -54.166 -31.5 -74.499s-44.833 -30.5 -73.5 -30.5s-53.167 10.167 -73.5 30.5
s-30.5 45.166 -30.5 74.499zM459 1421l-200 -199.002c-18.667 -18.667 -42.667 -28 -72 -28c-30 0 -54.833 9.83301 -74.5 29.5s-29.5 44.5 -29.5 74.5c0 28.667 8.66699 52.334 26 71.001l200 199c21.333 20.667 46 31 74 31c30 0 54.833 -10.167 74.5 -30.5
s29.5 -45.166 29.5 -74.499c0 -30 -9.33301 -54.333 -28 -73z" />
    <glyph glyph-name="icircumflex" unicode="&#xee;" horiz-adv-x="560" 
d="M180 105v910c0 29.333 10.167 54.166 30.5 74.499s44.833 30.5 73.5 30.5s53.167 -10.167 73.5 -30.5s30.833 -45.166 31.5 -74.499v-910c-0.666992 -29.333 -11.167 -54.166 -31.5 -74.499s-44.833 -30.5 -73.5 -30.5s-53.167 10.167 -73.5 30.5
s-30.5 45.166 -30.5 74.499zM570 1433c33.333 -25.333 50 -55.333 50 -90c0 -30 -9.83301 -54.833 -29.5 -74.5s-44.5 -29.5 -74.5 -29.5c-23.333 0 -45.333 7.33301 -66 22l-162 107l-162 -107c-20 -14.667 -42 -22 -66 -22c-30 0 -54.833 9.83301 -74.5 29.5
s-29.5 44.5 -29.5 74.5c0 35.333 16.333 65.333 49 90l229 151c16.667 10.667 34.667 16 54 16s37.333 -5.33301 54 -16z" />
    <glyph glyph-name="idieresis" unicode="&#xef;" horiz-adv-x="600" 
d="M196 105v910c0 29.333 10.167 54.166 30.5 74.499s44.833 30.5 73.5 30.5s53.167 -10.167 73.5 -30.5s30.833 -45.166 31.5 -74.499v-910c-0.666992 -29.333 -11.167 -54.166 -31.5 -74.499s-44.833 -30.5 -73.5 -30.5s-53.167 10.167 -73.5 30.5
s-30.5 45.166 -30.5 74.499zM209 1359c0 -34 -12 -63 -36 -87s-53 -36 -87 -36s-63 12 -87 36s-36 53 -36 87s12 63 36 87s53 36 87 36s63 -12 87 -36s36 -53 36 -87zM664 1359c0 -34 -12 -63 -36 -87s-53 -36 -87 -36s-63 12 -87 36s-36 53 -36 87s12 63 36 87s53 36 87 36
s63 -12 87 -36s36 -53 36 -87z" />
    <glyph glyph-name="eth" unicode="&#xf0;" 
d="M638 924c-50 0 -96.667 -9.5 -140 -28.5s-80.833 -44.5 -112.5 -76.5s-56.834 -69.667 -75.501 -113s-28 -89.333 -28 -138s9.33301 -94.667 28 -138s43.834 -81 75.501 -113s69.167 -57.5 112.5 -76.5s90 -28.5 140 -28.5c49.333 0 95.666 9.5 138.999 28.5
s81 44.667 113 77s57.333 70 76 113s28 88.833 28 137.5s-9.33301 94.5 -28 137.5s-44 80.667 -76 113s-69.667 58 -113 77s-89.666 28.5 -138.999 28.5zM554 1429l-16.002 27.9951c-4.66699 10.667 -7 23.334 -7 38.001s2.83301 28.334 8.5 41.001
s13.334 23.834 23.001 33.501s21 17.334 34 23.001s26.833 8.5 41.5 8.5c33.333 0 58.333 -11 75 -33l22 -33l96 57c12.667 6 27.667 9 45 9c18.667 0 36.334 -4.5 53.001 -13.5s29.667 -21.5 39 -37.5c9.33301 -16.667 14 -35 14 -55c0 -18 -4.33301 -35.333 -13 -52
s-21.667 -29.667 -39 -39l-87 -51l294 -511c23.333 -40.667 40.666 -84 51.999 -130s17 -94 17 -144c0 -158 -55.667 -292 -167 -402c-112 -110.667 -245.667 -166 -401 -166c-156.667 0 -290.667 55.333 -402 166c-110.667 111.333 -166 245.333 -166 402
s55.333 290.334 166 401.001c111.333 111.333 245.333 167 402 167c29.333 0 58 -2 86 -6l-65 116l-110 -63c-13.333 -6.66699 -28.666 -10 -45.999 -10c-18.667 0 -36.167 4.33301 -52.5 13s-29.166 21 -38.499 37c-9.33301 16.667 -14 35 -14 55
c0 18 4.16699 35.333 12.5 52s21.166 29.667 38.499 39z" />
    <glyph glyph-name="ntilde" unicode="&#xf1;" horiz-adv-x="1200" 
d="M288 1017c88.667 68.667 193 102.999 313 102.999c70 0 136.5 -13.667 199.5 -41s118.5 -64.5 166.5 -111.5s86 -102.333 114 -166s42 -131.5 42 -203.5v-493c0 -29.333 -10.167 -54.166 -30.5 -74.499s-44.833 -30.5 -73.5 -30.5c-29.333 0 -54.166 10.167 -74.499 30.5
s-30.5 45.166 -30.5 74.499v493c0 42.667 -8.33301 83 -25 121s-39.167 71.167 -67.5 99.5s-61.5 50.833 -99.5 67.5s-78.333 25 -121 25c-43.333 0 -83.833 -8.16699 -121.5 -24.5s-70.834 -38.833 -99.501 -67.5s-51.167 -62 -67.5 -100s-24.5 -78.333 -24.5 -121v-493
c0 -29.333 -10.167 -54.166 -30.5 -74.499s-44.833 -30.5 -73.5 -30.5c-29.333 0 -54.166 10.167 -74.499 30.5s-30.5 45.166 -30.5 74.499v910c0 28.667 10.167 53.334 30.5 74.001s45.166 31 74.499 31c28.667 0 53.167 -10.333 73.5 -31s30.5 -44.667 30.5 -72zM461 1231
c-25.333 0 -53.334 3.66797 -84.001 11.001s-59.5 18.333 -86.5 33s-49.5 32.5 -67.5 53.5s-27 45.5 -27 73.5c0.666992 31.333 11 56.5 31 75.5s44.333 28.5 73 28.5c24 0 51 -11 81 -33s58 -33 84 -33c28.667 0 53 9 73 27c58 54.667 131 82 219 82
c24.667 0 52.5 -3.83301 83.5 -11.5s59.833 -18.834 86.5 -33.501s49.167 -32.667 67.5 -54s27.5 -45.333 27.5 -72c0 -30 -10.167 -54.833 -30.5 -74.5s-45.166 -29.5 -74.499 -29.5c-21.333 0 -47.833 11 -79.5 33s-59.5 33 -83.5 33c-27.333 0 -52 -9 -74 -27
c-60 -54.667 -133 -82 -219 -82z" />
    <glyph glyph-name="ograve" unicode="&#xf2;" 
d="M1200 560c0 -156 -54.667 -288 -164 -396c-110.667 -109.333 -242.667 -164 -396 -164c-154.667 0 -286.667 54.667 -396 164s-164 241.333 -164 396s54.667 286.667 164 396s241.333 164 396 164c153.333 0 285.333 -54.667 396 -164
c54.667 -54.667 95.5 -115 122.5 -181s40.833 -137.667 41.5 -215zM640 911c-49.333 0 -95.333 -9.3291 -138 -27.9961s-79.667 -43.834 -111 -75.501s-56.166 -68.834 -74.499 -111.501s-27.5 -88 -27.5 -136s9.16699 -93.333 27.5 -136s43.166 -79.834 74.499 -111.501
s68.333 -56.834 111 -75.501s88.667 -28 138 -28c48.667 0 94.334 9.33301 137.001 28s79.834 44 111.501 76s56.667 69.167 75 111.5s27.5 87.5 27.5 135.5s-9.16699 93.167 -27.5 135.5s-43.333 79.5 -75 111.5s-68.834 57.333 -111.501 76s-88.334 28 -137.001 28z
M401 1494c0 29.333 9.83301 54.168 29.5 74.501s44.5 30.5 74.5 30.5c28 0 52.667 -10.333 74 -31l200 -199c17.333 -18.667 26 -42.334 26 -71.001c0 -30 -9.83301 -54.833 -29.5 -74.5s-44.5 -29.5 -74.5 -29.5c-29.333 0 -53.333 9.33301 -72 28l-200 199
c-18.667 18.667 -28 43 -28 73z" />
    <glyph glyph-name="oacute" unicode="&#xf3;" 
d="M1200 560c0 -156 -54.667 -288 -164 -396c-110.667 -109.333 -242.667 -164 -396 -164c-154.667 0 -286.667 54.667 -396 164s-164 241.333 -164 396s54.667 286.667 164 396s241.333 164 396 164c153.333 0 285.333 -54.667 396 -164
c54.667 -54.667 95.5 -115 122.5 -181s40.833 -137.667 41.5 -215zM640 911c-49.333 0 -95.333 -9.3291 -138 -27.9961s-79.667 -43.834 -111 -75.501s-56.166 -68.834 -74.499 -111.501s-27.5 -88 -27.5 -136s9.16699 -93.333 27.5 -136s43.166 -79.834 74.499 -111.501
s68.333 -56.834 111 -75.501s88.667 -28 138 -28c48.667 0 94.334 9.33301 137.001 28s79.834 44 111.501 76s56.667 69.167 75 111.5s27.5 87.5 27.5 135.5s-9.16699 93.167 -27.5 135.5s-43.333 79.5 -75 111.5s-68.834 57.333 -111.501 76s-88.334 28 -137.001 28z
M856 1421l-200 -199.002c-18.667 -18.667 -42.667 -28 -72 -28c-30 0 -54.833 9.83301 -74.5 29.5s-29.5 44.5 -29.5 74.5c0 28.667 8.66699 52.334 26 71.001l200 199c21.333 20.667 46 31 74 31c30 0 54.833 -10.167 74.5 -30.5s29.5 -45.166 29.5 -74.499
c0 -30 -9.33301 -54.333 -28 -73z" />
    <glyph glyph-name="ocircumflex" unicode="&#xf4;" 
d="M1200 560c0 -156 -54.667 -288 -164 -396c-110.667 -109.333 -242.667 -164 -396 -164c-154.667 0 -286.667 54.667 -396 164s-164 241.333 -164 396s54.667 286.667 164 396s241.333 164 396 164c153.333 0 285.333 -54.667 396 -164
c54.667 -54.667 95.5 -115 122.5 -181s40.833 -137.667 41.5 -215zM640 911c-49.333 0 -95.333 -9.3291 -138 -27.9961s-79.667 -43.834 -111 -75.501s-56.166 -68.834 -74.499 -111.501s-27.5 -88 -27.5 -136s9.16699 -93.333 27.5 -136s43.166 -79.834 74.499 -111.501
s68.333 -56.834 111 -75.501s88.667 -28 138 -28c48.667 0 94.334 9.33301 137.001 28s79.834 44 111.501 76s56.667 69.167 75 111.5s27.5 87.5 27.5 135.5s-9.16699 93.167 -27.5 135.5s-43.333 79.5 -75 111.5s-68.834 57.333 -111.501 76s-88.334 28 -137.001 28z
M918 1433c33.333 -25.333 50 -55.333 50 -90c0 -30 -9.83301 -54.833 -29.5 -74.5s-44.5 -29.5 -74.5 -29.5c-23.333 0 -45.333 7.33301 -66 22l-162 107l-162 -107c-20 -14.667 -42 -22 -66 -22c-30 0 -54.833 9.83301 -74.5 29.5s-29.5 44.5 -29.5 74.5
c0 35.333 16.333 65.333 49 90l229 151c16.667 10.667 34.667 16 54 16s37.333 -5.33301 54 -16z" />
    <glyph glyph-name="otilde" unicode="&#xf5;" 
d="M1200 560c0 -156 -54.667 -288 -164 -396c-110.667 -109.333 -242.667 -164 -396 -164c-154.667 0 -286.667 54.667 -396 164s-164 241.333 -164 396s54.667 286.667 164 396s241.333 164 396 164c153.333 0 285.333 -54.667 396 -164
c54.667 -54.667 95.5 -115 122.5 -181s40.833 -137.667 41.5 -215zM640 911c-49.333 0 -95.333 -9.3291 -138 -27.9961s-79.667 -43.834 -111 -75.501s-56.166 -68.834 -74.499 -111.501s-27.5 -88 -27.5 -136s9.16699 -93.333 27.5 -136s43.166 -79.834 74.499 -111.501
s68.333 -56.834 111 -75.501s88.667 -28 138 -28c48.667 0 94.334 9.33301 137.001 28s79.834 44 111.501 76s56.667 69.167 75 111.5s27.5 87.5 27.5 135.5s-9.16699 93.167 -27.5 135.5s-43.333 79.5 -75 111.5s-68.834 57.333 -111.501 76s-88.334 28 -137.001 28z
M496 1231c-25.333 0 -53.334 3.66797 -84.001 11.001s-59.5 18.333 -86.5 33s-49.5 32.5 -67.5 53.5s-27 45.5 -27 73.5c0.666992 31.333 11 56.5 31 75.5s44.333 28.5 73 28.5c24 0 51 -11 81 -33s58 -33 84 -33c28.667 0 53 9 73 27c58 54.667 131 82 219 82
c24.667 0 52.5 -3.83301 83.5 -11.5s59.833 -18.834 86.5 -33.501s49.167 -32.667 67.5 -54s27.5 -45.333 27.5 -72c0 -30 -10.167 -54.833 -30.5 -74.5s-45.166 -29.5 -74.499 -29.5c-21.333 0 -47.833 11 -79.5 33s-59.5 33 -83.5 33c-27.333 0 -52 -9 -74 -27
c-60 -54.667 -133 -82 -219 -82z" />
    <glyph glyph-name="odieresis" unicode="&#xf6;" 
d="M1200 560c0 -156 -54.667 -288 -164 -396c-110.667 -109.333 -242.667 -164 -396 -164c-154.667 0 -286.667 54.667 -396 164s-164 241.333 -164 396s54.667 286.667 164 396s241.333 164 396 164c153.333 0 285.333 -54.667 396 -164
c54.667 -54.667 95.5 -115 122.5 -181s40.833 -137.667 41.5 -215zM640 911c-49.333 0 -95.333 -9.3291 -138 -27.9961s-79.667 -43.834 -111 -75.501s-56.166 -68.834 -74.499 -111.501s-27.5 -88 -27.5 -136s9.16699 -93.333 27.5 -136s43.166 -79.834 74.499 -111.501
s68.333 -56.834 111 -75.501s88.667 -28 138 -28c48.667 0 94.334 9.33301 137.001 28s79.834 44 111.501 76s56.667 69.167 75 111.5s27.5 87.5 27.5 135.5s-9.16699 93.167 -27.5 135.5s-43.333 79.5 -75 111.5s-68.834 57.333 -111.501 76s-88.334 28 -137.001 28z
M539 1359c0 -34 -12 -63 -36 -87s-53 -36 -87 -36s-63 12 -87 36s-36 53 -36 87s12 63 36 87s53 36 87 36s63 -12 87 -36s36 -53 36 -87zM994 1359c0 -34 -12 -63 -36 -87s-53 -36 -87 -36s-63 12 -87 36s-36 53 -36 87s12 63 36 87s53 36 87 36s63 -12 87 -36
s36 -53 36 -87z" />
    <glyph glyph-name="divide" unicode="&#xf7;" horiz-adv-x="960" 
d="M180 607c-30 0 -54.833 10 -74.5 30s-29.5 45 -29.5 75s9.83301 54.833 29.5 74.5s44.5 29.5 74.5 29.5h608c30 0 54.833 -9.83301 74.5 -29.5s29.5 -44.5 29.5 -74.5s-9.83301 -55 -29.5 -75s-44.5 -30 -74.5 -30h-608zM607 997c0 -34.667 -12 -64 -36 -88
s-53 -36 -87 -36c-34.667 0 -64 12 -88 36s-36 53.333 -36 88c0 34 12 63 36 87s53.333 36 88 36c34 0 63 -12 87 -36s36 -53 36 -87zM607 428c0 -34.667 -12 -64 -36 -88s-53 -36 -87 -36c-34.667 0 -64 12 -88 36s-36 53.333 -36 88c0 34 12 63 36 87s53.333 36 88 36
c34 0 63 -12 87 -36s36 -53 36 -87z" />
    <glyph glyph-name="oslash" unicode="&#xf8;" 
d="M804 871c-24.667 14 -50.668 24.1699 -78.001 30.5029s-56 9.5 -86 9.5c-49.333 0 -95.333 -9.33301 -138 -28s-79.667 -43.834 -111 -75.501s-56.166 -68.834 -74.499 -111.501s-27.5 -88 -27.5 -136c0 -60.667 12.667 -115.334 38 -164.001zM475.999 248.003
c24.667 -13.333 50.4971 -23.167 77.4971 -29.5s55.833 -9.5 86.5 -9.5c48.667 0 94.334 9.33301 137.001 28s79.834 44 111.501 76s56.667 69.167 75 111.5s27.5 87.5 27.5 135.5c0 30.667 -3.16699 59.5 -9.5 86.5s-16.166 52.833 -29.499 77.5zM1019 1087
c20.667 22 45.999 33 75.999 33c14.667 0 28.334 -2.66699 41.001 -8s23.667 -12.833 33 -22.5s16.833 -20.834 22.5 -33.501s8.5 -26 8.5 -40c0 -28 -10 -52.333 -30 -73l-67 -68c64.667 -91.333 97 -196.333 97 -315c0 -156 -54.667 -288 -164 -396
c-110.667 -109.333 -242.667 -164 -396 -164c-119.333 0 -224.333 32.333 -315 97l-70 -73c-18 -16 -41.667 -24 -71 -24c-14.667 0 -28.334 2.66699 -41.001 8s-23.667 12.833 -33 22.5s-16.666 20.834 -21.999 33.501s-8 26 -8 40s2.16699 27.167 6.5 39.5
s11.5 23.5 21.5 33.5l69 68c-64.667 90.667 -97 195.667 -97 315c0 154.667 54.667 286.667 164 396s241.333 164 396 164c120 0 225.333 -32.333 316 -97z" />
    <glyph glyph-name="ugrave" unicode="&#xf9;" horiz-adv-x="1200" 
d="M1018 0c-30 0 -54.667 10 -74 30s-29.333 44.333 -30 73c-46 -36 -94.667 -62.167 -146 -78.5s-107 -24.5 -167 -24.5c-71.333 -0 -138.666 13.833 -201.999 41.5s-118.666 65.167 -165.999 112.5s-84.833 102.666 -112.5 165.999s-41.5 130.666 -41.5 201.999v494
c0 28.667 10.167 53.167 30.5 73.5s45.166 30.5 74.499 30.5c28.667 0 53.167 -10.167 73.5 -30.5s30.5 -44.833 30.5 -73.5v-494c0 -43.333 8.16699 -84 24.5 -122s38.666 -71.167 66.999 -99.5s61.5 -50.666 99.5 -66.999s78.667 -24.5 122 -24.5
c42.667 0 83 8.16699 121 24.5s71.333 38.833 100 67.5s51.167 61.834 67.5 99.501s24.5 78.167 24.5 121.5v494c0 28.667 10.167 53.167 30.5 73.5s45.166 30.5 74.499 30.5c28.667 0 53.167 -10.167 73.5 -30.5s30.5 -44.833 30.5 -73.5v-912
c0 -28.667 -10.167 -53.167 -30.5 -73.5s-45.166 -30.5 -74.499 -30.5zM391 1494c0 29.333 9.83301 54.168 29.5 74.501s44.5 30.5 74.5 30.5c28 0 52.667 -10.333 74 -31l200 -199c17.333 -18.667 26 -42.334 26 -71.001c0 -30 -9.83301 -54.833 -29.5 -74.5
s-44.5 -29.5 -74.5 -29.5c-29.333 0 -53.333 9.33301 -72 28l-200 199c-18.667 18.667 -28 43 -28 73z" />
    <glyph glyph-name="uacute" unicode="&#xfa;" horiz-adv-x="1200" 
d="M1018 0c-30 0 -54.667 10 -74 30s-29.333 44.333 -30 73c-46 -36 -94.667 -62.167 -146 -78.5s-107 -24.5 -167 -24.5c-71.333 -0 -138.666 13.833 -201.999 41.5s-118.666 65.167 -165.999 112.5s-84.833 102.666 -112.5 165.999s-41.5 130.666 -41.5 201.999v494
c0 28.667 10.167 53.167 30.5 73.5s45.166 30.5 74.499 30.5c28.667 0 53.167 -10.167 73.5 -30.5s30.5 -44.833 30.5 -73.5v-494c0 -43.333 8.16699 -84 24.5 -122s38.666 -71.167 66.999 -99.5s61.5 -50.666 99.5 -66.999s78.667 -24.5 122 -24.5
c42.667 0 83 8.16699 121 24.5s71.333 38.833 100 67.5s51.167 61.834 67.5 99.501s24.5 78.167 24.5 121.5v494c0 28.667 10.167 53.167 30.5 73.5s45.166 30.5 74.499 30.5c28.667 0 53.167 -10.167 73.5 -30.5s30.5 -44.833 30.5 -73.5v-912
c0 -28.667 -10.167 -53.167 -30.5 -73.5s-45.166 -30.5 -74.499 -30.5zM800 1421l-200 -199.002c-18.667 -18.667 -42.667 -28 -72 -28c-30 0 -54.833 9.83301 -74.5 29.5s-29.5 44.5 -29.5 74.5c0 28.667 8.66699 52.334 26 71.001l200 199c21.333 20.667 46 31 74 31
c30 0 54.833 -10.167 74.5 -30.5s29.5 -45.166 29.5 -74.499c0 -30 -9.33301 -54.333 -28 -73z" />
    <glyph glyph-name="ucircumflex" unicode="&#xfb;" horiz-adv-x="1200" 
d="M1018 0c-30 0 -54.667 10 -74 30s-29.333 44.333 -30 73c-46 -36 -94.667 -62.167 -146 -78.5s-107 -24.5 -167 -24.5c-71.333 -0 -138.666 13.833 -201.999 41.5s-118.666 65.167 -165.999 112.5s-84.833 102.666 -112.5 165.999s-41.5 130.666 -41.5 201.999v494
c0 28.667 10.167 53.167 30.5 73.5s45.166 30.5 74.499 30.5c28.667 0 53.167 -10.167 73.5 -30.5s30.5 -44.833 30.5 -73.5v-494c0 -43.333 8.16699 -84 24.5 -122s38.666 -71.167 66.999 -99.5s61.5 -50.666 99.5 -66.999s78.667 -24.5 122 -24.5
c42.667 0 83 8.16699 121 24.5s71.333 38.833 100 67.5s51.167 61.834 67.5 99.501s24.5 78.167 24.5 121.5v494c0 28.667 10.167 53.167 30.5 73.5s45.166 30.5 74.499 30.5c28.667 0 53.167 -10.167 73.5 -30.5s30.5 -44.833 30.5 -73.5v-912
c0 -28.667 -10.167 -53.167 -30.5 -73.5s-45.166 -30.5 -74.499 -30.5zM878 1433c33.333 -25.333 50 -55.333 50 -90c0 -30 -9.83301 -54.833 -29.5 -74.5s-44.5 -29.5 -74.5 -29.5c-23.333 0 -45.333 7.33301 -66 22l-162 107l-162 -107c-20 -14.667 -42 -22 -66 -22
c-30 0 -54.833 9.83301 -74.5 29.5s-29.5 44.5 -29.5 74.5c0 35.333 16.333 65.333 49 90l229 151c16.667 10.667 34.667 16 54 16s37.333 -5.33301 54 -16z" />
    <glyph glyph-name="udieresis" unicode="&#xfc;" horiz-adv-x="1200" 
d="M1018 0c-30 0 -54.667 10 -74 30s-29.333 44.333 -30 73c-46 -36 -94.667 -62.167 -146 -78.5s-107 -24.5 -167 -24.5c-71.333 -0 -138.666 13.833 -201.999 41.5s-118.666 65.167 -165.999 112.5s-84.833 102.666 -112.5 165.999s-41.5 130.666 -41.5 201.999v494
c0 28.667 10.167 53.167 30.5 73.5s45.166 30.5 74.499 30.5c28.667 0 53.167 -10.167 73.5 -30.5s30.5 -44.833 30.5 -73.5v-494c0 -43.333 8.16699 -84 24.5 -122s38.666 -71.167 66.999 -99.5s61.5 -50.666 99.5 -66.999s78.667 -24.5 122 -24.5
c42.667 0 83 8.16699 121 24.5s71.333 38.833 100 67.5s51.167 61.834 67.5 99.501s24.5 78.167 24.5 121.5v494c0 28.667 10.167 53.167 30.5 73.5s45.166 30.5 74.499 30.5c28.667 0 53.167 -10.167 73.5 -30.5s30.5 -44.833 30.5 -73.5v-912
c0 -28.667 -10.167 -53.167 -30.5 -73.5s-45.166 -30.5 -74.499 -30.5zM499 1359c0 -34 -12 -63 -36 -87s-53 -36 -87 -36s-63 12 -87 36s-36 53 -36 87s12 63 36 87s53 36 87 36s63 -12 87 -36s36 -53 36 -87zM954 1359c0 -34 -12 -63 -36 -87s-53 -36 -87 -36
s-63 12 -87 36s-36 53 -36 87s12 63 36 87s53 36 87 36s63 -12 87 -36s36 -53 36 -87z" />
    <glyph glyph-name="yacute" unicode="&#xfd;" horiz-adv-x="1120" 
d="M448 104l-360.001 865.002c-6.66699 15.333 -10 31 -10 47c0 14 2.66699 27.333 8 40s12.666 23.834 21.999 33.501s20.333 17.167 33 22.5s26.334 8 41.001 8c20.667 0 40 -5.83301 58 -17.5s31.667 -28.834 41 -51.501l281 -671l281 673c8 20 19.5 36.167 34.5 48.5
s36.167 18.5 63.5 18.5c14.667 0 28.334 -2.66699 41.001 -8s23.667 -12.833 33 -22.5s16.833 -20.834 22.5 -33.501s8.5 -26 8.5 -40c0 -14.667 -3.66699 -30.334 -11 -47.001l-575 -1379c-8.66699 -20.667 -22 -37.5 -40 -50.5s-37.667 -19.5 -59 -19.5
c-30 0 -54.833 10 -74.5 30s-29.5 45 -29.5 75c0 16 3.33301 31.333 10 46zM826.999 1421l-200 -199.002c-18.667 -18.667 -42.667 -28 -72 -28c-30 0 -54.833 9.83301 -74.5 29.5s-29.5 44.5 -29.5 74.5c0 28.667 8.66699 52.334 26 71.001l200 199
c21.333 20.667 46 31 74 31c30 0 54.833 -10.167 74.5 -30.5s29.5 -45.166 29.5 -74.499c0 -30 -9.33301 -54.333 -28 -73z" />
    <glyph glyph-name="thorn" unicode="&#xfe;" 
d="M289 562c0 -48 9.16699 -93.3291 27.5 -135.996s43.166 -79.834 74.499 -111.501s68.333 -56.834 111 -75.501s88.667 -28 138 -28c48.667 0 94.334 9.33301 137.001 28s79.834 44 111.501 76s56.667 69.167 75 111.5s27.5 87.5 27.5 135.5s-9.16699 93.167 -27.5 135.5
s-43.333 79.5 -75 111.5s-68.834 57.333 -111.501 76s-88.334 28 -137.001 28c-49.333 0 -95.333 -9.33301 -138 -28s-79.667 -43.834 -111 -75.501s-56.166 -68.834 -74.499 -111.501s-27.5 -88 -27.5 -136zM289 998.004c50 40 104.335 70.668 163.002 92.001
s121.334 32 188.001 32c153.333 0 285.333 -54.667 396 -164c54.667 -54 95.667 -114.167 123 -180.5s41 -138.166 41 -215.499c0 -156 -54.667 -288 -164 -396c-110.667 -109.333 -242.667 -164 -396 -164c-66.667 0 -129.334 10.667 -188.001 32s-113 52 -163 92v-500
c0 -14.667 -2.83301 -28.334 -8.5 -41.001s-13.167 -23.834 -22.5 -33.501s-20.333 -17.167 -33 -22.5s-26.334 -8 -41.001 -8c-30 0 -54.833 10 -74.5 30s-29.5 45 -29.5 75v1870c0 30 9.83301 54.833 29.5 74.5s44.5 29.5 74.5 29.5
c29.333 0 54.166 -9.83301 74.499 -29.5s30.5 -44.5 30.5 -74.5v-498z" />
    <glyph glyph-name="ydieresis" unicode="&#xff;" horiz-adv-x="1120" 
d="M448 104l-360.001 865.002c-6.66699 15.333 -10 31 -10 47c0 14 2.66699 27.333 8 40s12.666 23.834 21.999 33.501s20.333 17.167 33 22.5s26.334 8 41.001 8c20.667 0 40 -5.83301 58 -17.5s31.667 -28.834 41 -51.501l281 -671l281 673c8 20 19.5 36.167 34.5 48.5
s36.167 18.5 63.5 18.5c14.667 0 28.334 -2.66699 41.001 -8s23.667 -12.833 33 -22.5s16.833 -20.834 22.5 -33.501s8.5 -26 8.5 -40c0 -14.667 -3.66699 -30.334 -11 -47.001l-575 -1379c-8.66699 -20.667 -22 -37.5 -40 -50.5s-37.667 -19.5 -59 -19.5
c-30 0 -54.833 10 -74.5 30s-29.5 45 -29.5 75c0 16 3.33301 31.333 10 46zM458.999 1359c0 -34 -12 -63 -36 -87s-53 -36 -87 -36s-63 12 -87 36s-36 53 -36 87s12 63 36 87s53 36 87 36s63 -12 87 -36s36 -53 36 -87zM913.999 1359c0 -34 -12 -63 -36 -87s-53 -36 -87 -36
s-63 12 -87 36s-36 53 -36 87s12 63 36 87s53 36 87 36s63 -12 87 -36s36 -53 36 -87z" />
    <glyph glyph-name="Amacron" unicode="&#x100;" horiz-adv-x="1440" 
d="M897 752l-174 449l-174 -449h348zM88 154l533.999 1374c21.333 48 55 72 101 72c47.333 0 81 -24 101 -72l536 -1379c5.33301 -13.333 8 -27.666 8 -42.999c0 -29.333 -10.333 -54.333 -31 -75s-45.667 -31 -75 -31s-54 10.333 -74 31c-10.667 10.667 -18.667 22 -24 34
l-185 475h-512l-186 -475c-5.33301 -12 -13.333 -23.333 -24 -34c-20.667 -20.667 -45.667 -31 -75 -31s-54.166 10.333 -74.499 31s-30.5 45.667 -30.5 75c0 16 3.66699 32 11 48zM487.999 1731c-30 0 -54.833 9.83301 -74.5 29.5s-29.5 44.5 -29.5 74.5
c0 29.333 9.83301 54.166 29.5 74.499s44.5 30.5 74.5 30.5h456c30 0 54.833 -10.167 74.5 -30.5s29.5 -45.166 29.5 -74.499c0 -30 -9.83301 -54.833 -29.5 -74.5s-44.5 -29.5 -74.5 -29.5h-456z" />
    <glyph glyph-name="amacron" unicode="&#x101;" 
d="M640 911c-49.333 0 -95.333 -9.3291 -138 -27.9961s-79.667 -43.834 -111 -75.501s-56.166 -68.834 -74.499 -111.501s-27.5 -88 -27.5 -136s9.16699 -93.333 27.5 -136s43.166 -79.834 74.499 -111.501s68.333 -56.834 111 -75.501s88.667 -28 138 -28
c48.667 0 94.334 9.33301 137.001 28s79.834 44 111.501 76s56.667 69.167 75 111.5s27.5 87.5 27.5 135.5s-9.16699 93.167 -27.5 135.5s-43.333 79.5 -75 111.5s-68.834 57.333 -111.501 76s-88.334 28 -137.001 28zM991 104.004v20c-50 -40 -104.333 -70.667 -163 -92
s-121.334 -32 -188.001 -32c-154.667 0 -286.667 54.667 -396 164s-164 241.333 -164 396s54.667 286.667 164 396s241.333 164 396 164c153.333 0 285.333 -54.667 396 -164c109.333 -109.333 164 -241.333 164 -396v-456c0 -28.667 -10.167 -53.167 -30.5 -73.5
s-44.833 -30.5 -73.5 -30.5c-29.333 0 -54.166 10.167 -74.499 30.5s-30.5 44.833 -30.5 73.5zM408 1251c-30 0 -54.833 9.83301 -74.5 29.5s-29.5 44.5 -29.5 74.5c0 29.333 9.83301 54.166 29.5 74.499s44.5 30.5 74.5 30.5h456c30 0 54.833 -10.167 74.5 -30.5
s29.5 -45.166 29.5 -74.499c0 -30 -9.83301 -54.833 -29.5 -74.5s-44.5 -29.5 -74.5 -29.5h-456z" />
    <glyph glyph-name="Abreve" unicode="&#x102;" horiz-adv-x="1440" 
d="M897 752l-174 449l-174 -449h348zM88 154l533.999 1374c21.333 48 55 72 101 72c47.333 0 81 -24 101 -72l536 -1379c5.33301 -13.333 8 -27.666 8 -42.999c0 -29.333 -10.333 -54.333 -31 -75s-45.667 -31 -75 -31s-54 10.333 -74 31c-10.667 10.667 -18.667 22 -24 34
l-185 475h-512l-186 -475c-5.33301 -12 -13.333 -23.333 -24 -34c-20.667 -20.667 -45.667 -31 -75 -31s-54.166 10.333 -74.499 31s-30.5 45.667 -30.5 75c0 16 3.66699 32 11 48zM722.999 1719c-46 0 -89.168 6.5 -129.501 19.5s-75.5 31 -105.5 54
s-53.833 50.167 -71.5 81.5s-26.5 65 -26.5 101c0 29.333 9.83301 54.166 29.5 74.499s44.5 30.5 74.5 30.5s55 -10 75 -30c14.667 -15.333 23.667 -33.333 27 -54c2 -18.667 14.667 -34.334 38 -47.001c24.667 -14 54.334 -21 89.001 -21s64.334 7 89.001 21
c23.333 12.667 35.666 28.334 36.999 47.001c4 20.667 13.333 38.667 28 54c20 20 45 30 75 30s54.833 -10.167 74.5 -30.5s29.5 -45.166 29.5 -74.499c0 -36 -8.83301 -69.667 -26.5 -101s-41.5 -58.5 -71.5 -81.5s-65.167 -41 -105.5 -54s-83.5 -19.5 -129.5 -19.5z" />
    <glyph glyph-name="abreve" unicode="&#x103;" 
d="M640 911c-49.333 0 -95.333 -9.3291 -138 -27.9961s-79.667 -43.834 -111 -75.501s-56.166 -68.834 -74.499 -111.501s-27.5 -88 -27.5 -136s9.16699 -93.333 27.5 -136s43.166 -79.834 74.499 -111.501s68.333 -56.834 111 -75.501s88.667 -28 138 -28
c48.667 0 94.334 9.33301 137.001 28s79.834 44 111.501 76s56.667 69.167 75 111.5s27.5 87.5 27.5 135.5s-9.16699 93.167 -27.5 135.5s-43.333 79.5 -75 111.5s-68.834 57.333 -111.501 76s-88.334 28 -137.001 28zM991 104.004v20c-50 -40 -104.333 -70.667 -163 -92
s-121.334 -32 -188.001 -32c-154.667 0 -286.667 54.667 -396 164s-164 241.333 -164 396s54.667 286.667 164 396s241.333 164 396 164c153.333 0 285.333 -54.667 396 -164c109.333 -109.333 164 -241.333 164 -396v-456c0 -28.667 -10.167 -53.167 -30.5 -73.5
s-44.833 -30.5 -73.5 -30.5c-29.333 0 -54.166 10.167 -74.499 30.5s-30.5 44.833 -30.5 73.5zM643 1239c-46 0 -89.168 6.5 -129.501 19.5s-75.5 31 -105.5 54s-53.833 50.167 -71.5 81.5s-26.5 65 -26.5 101c0 29.333 9.83301 54.166 29.5 74.499s44.5 30.5 74.5 30.5
s55 -10 75 -30c14.667 -15.333 23.667 -33.333 27 -54c2 -18.667 14.667 -34.334 38 -47.001c24.667 -14 54.334 -21 89.001 -21s64.334 7 89.001 21c23.333 12.667 35.666 28.334 36.999 47.001c4 20.667 13.333 38.667 28 54c20 20 45 30 75 30s54.833 -10.167 74.5 -30.5
s29.5 -45.166 29.5 -74.499c0 -36 -8.83301 -69.667 -26.5 -101s-41.5 -58.5 -71.5 -81.5s-65.167 -41 -105.5 -54s-83.5 -19.5 -129.5 -19.5z" />
    <glyph glyph-name="Aogonek" unicode="&#x104;" horiz-adv-x="1520" 
d="M897 752l-174 449l-174 -449h348zM88 154l533.999 1374c21.333 48 55 72 101 72c47.333 0 81 -24 101 -72l536 -1379c5.33301 -13.333 8 -27.666 8 -42.999c0 -29.333 -10.333 -54.333 -31 -75s-45.667 -31 -75 -31s-54 10.333 -74 31c-10.667 10.667 -18.667 22 -24 34
l-185 475h-512l-186 -475c-5.33301 -12 -13.333 -23.333 -24 -34c-20.667 -20.667 -45.667 -31 -75 -31s-54.166 10.333 -74.499 31s-30.5 45.667 -30.5 75c0 16 3.66699 32 11 48zM1172 157.999c8.66699 17.333 20.6709 30.833 36.0039 40.5s33.666 14.5 54.999 14.5
c29.333 0 53.833 -9.66699 73.5 -29s30.167 -43.666 31.5 -72.999c0 -30.667 -11 -61.667 -33 -93s-54.333 -62.666 -97 -93.999c-14.667 -12 -22 -25.333 -22 -40c0 -13.333 4.66699 -24.666 14 -33.999s20.666 -14 33.999 -14c9.33301 0 17.666 2.66699 24.999 8l63 47
c18 14 39.333 21 64 21c30 0 54.833 -9.83301 74.5 -29.5s29.5 -44.5 29.5 -74.5c0 -34 -12.667 -61.667 -38 -83l-77 -53c-43.333 -30 -90.333 -45 -141 -45c-34 0 -66.5 6.66699 -97.5 20s-58.333 31.666 -82 54.999s-42.334 50.666 -56.001 81.999
s-20.5 64.666 -20.5 99.999c0 82.667 35.667 152 107 208c28 23.333 47 45.333 57 66z" />
    <glyph glyph-name="aogonek" unicode="&#x105;" horiz-adv-x="1360" 
d="M640 911c-49.333 0 -95.333 -9.3291 -138 -27.9961s-79.667 -43.834 -111 -75.501s-56.166 -68.834 -74.499 -111.501s-27.5 -88 -27.5 -136s9.16699 -93.333 27.5 -136s43.166 -79.834 74.499 -111.501s68.333 -56.834 111 -75.501s88.667 -28 138 -28
c48.667 0 94.334 9.33301 137.001 28s79.834 44 111.501 76s56.667 69.167 75 111.5s27.5 87.5 27.5 135.5s-9.16699 93.167 -27.5 135.5s-43.333 79.5 -75 111.5s-68.834 57.333 -111.501 76s-88.334 28 -137.001 28zM991 104.004v20c-50 -40 -104.333 -70.667 -163 -92
s-121.334 -32 -188.001 -32c-154.667 0 -286.667 54.667 -396 164s-164 241.333 -164 396s54.667 286.667 164 396s241.333 164 396 164c153.333 0 285.333 -54.667 396 -164c109.333 -109.333 164 -241.333 164 -396v-456c0 -28.667 -10.167 -53.167 -30.5 -73.5
s-44.833 -30.5 -73.5 -30.5c-29.333 0 -54.166 10.167 -74.499 30.5s-30.5 44.833 -30.5 73.5zM1004 154.004c8.66699 17.333 20.6709 30.833 36.0039 40.5s33.666 14.5 54.999 14.5c29.333 0 53.833 -9.66699 73.5 -29s30.167 -43.666 31.5 -72.999
c0 -30.667 -11 -61.667 -33 -93s-54.333 -62.666 -97 -93.999c-14.667 -12 -22 -25.333 -22 -40c0 -13.333 4.66699 -24.666 14 -33.999s20.666 -14 33.999 -14c9.33301 0 17.666 2.66699 24.999 8l63 47c18 14 39.333 21 64 21c30 0 54.833 -9.83301 74.5 -29.5
s29.5 -44.5 29.5 -74.5c0 -34 -12.667 -61.667 -38 -83l-77 -53c-43.333 -30 -90.333 -45 -141 -45c-34 0 -66.5 6.66699 -97.5 20s-58.333 31.666 -82 54.999s-42.334 50.666 -56.001 81.999s-20.5 64.666 -20.5 99.999c0 82.667 35.667 152 107 208
c28 23.333 47 45.333 57 66z" />
    <glyph glyph-name="Cacute" unicode="&#x106;" horiz-adv-x="1480" 
d="M1308 360c14.667 0 28.3311 -2.83203 40.998 -8.49902s23.834 -13.167 33.501 -22.5s17.334 -20.5 23.001 -33.5s8.5 -26.833 8.5 -41.5c0 -28 -11 -53.333 -33 -76c-148.667 -118.667 -316.334 -178 -503.001 -178c-221.333 0 -410 78 -566 234s-234 344.667 -234 566
c0 220.667 78 409 234 565c156.667 156.667 345.334 235 566.001 235c189.333 0 360.333 -62.333 513 -187c18.667 -18 28 -42.333 28 -73c0 -15.333 -2.66699 -29.333 -8 -42s-12.833 -23.834 -22.5 -33.501s-21 -17.167 -34 -22.5s-26.833 -8 -41.5 -8
c-26 0 -50.333 10 -73 30c-50.667 40 -106.5 70.667 -167.5 92s-125.833 32 -194.5 32c-162.667 0 -301.667 -57.667 -417 -173c-114 -114 -171 -252.333 -171 -415c0 -163.333 57 -302 171 -416c114.667 -114.667 253.667 -172 417 -172c139.333 0 262 43 368 129
c17.333 12 38 18.333 62 19zM1121 1901l-200 -199.002c-18.667 -18.667 -42.667 -28 -72 -28c-30 0 -54.833 9.83301 -74.5 29.5s-29.5 44.5 -29.5 74.5c0 28.667 8.66699 52.334 26 71.001l200 199c21.333 20.667 46 31 74 31c30 0 54.833 -10.167 74.5 -30.5
s29.5 -45.166 29.5 -74.499c0 -30 -9.33301 -54.333 -28 -73z" />
    <glyph glyph-name="cacute" unicode="&#x107;" horiz-adv-x="1120" 
d="M932 317c30 0 54.833 -9.83105 74.5 -29.498s29.5 -44.5 29.5 -74.5c0 -29.333 -11 -55 -33 -77c-103.333 -90.667 -225 -136 -365 -136c-154.667 0 -286.667 54.667 -396 164s-164 241.333 -164 396s54.667 286.667 164 396s241.333 164 396 164
c140.667 0 262.334 -45.333 365.001 -136c24 -21.333 36 -47.666 36 -78.999c0 -30 -9.83301 -55 -29.5 -75s-44.5 -30 -74.5 -30c-25.333 0 -48 8 -68 24c-34 28.667 -69.667 50.334 -107 65.001s-78 22 -122 22c-48.667 0 -94.334 -9.16699 -137.001 -27.5
s-80 -43.333 -112 -75s-57.167 -68.834 -75.5 -111.501s-27.5 -88.334 -27.5 -137.001s9.16699 -94.334 27.5 -137.001s43.5 -79.834 75.5 -111.501s69.333 -56.667 112 -75s88.334 -27.5 137.001 -27.5c44 0 84.667 7.16699 122 21.5s72.666 35.833 105.999 64.5
c18.667 14 40.667 21.333 66 22zM879 1421l-200 -199.002c-18.667 -18.667 -42.667 -28 -72 -28c-30 0 -54.833 9.83301 -74.5 29.5s-29.5 44.5 -29.5 74.5c0 28.667 8.66699 52.334 26 71.001l200 199c21.333 20.667 46 31 74 31c30 0 54.833 -10.167 74.5 -30.5
s29.5 -45.166 29.5 -74.499c0 -30 -9.33301 -54.333 -28 -73z" />
    <glyph glyph-name="Ccircumflex" unicode="&#x108;" horiz-adv-x="1480" 
d="M1308 360c14.667 0 28.3311 -2.83203 40.998 -8.49902s23.834 -13.167 33.501 -22.5s17.334 -20.5 23.001 -33.5s8.5 -26.833 8.5 -41.5c0 -28 -11 -53.333 -33 -76c-148.667 -118.667 -316.334 -178 -503.001 -178c-221.333 0 -410 78 -566 234s-234 344.667 -234 566
c0 220.667 78 409 234 565c156.667 156.667 345.334 235 566.001 235c189.333 0 360.333 -62.333 513 -187c18.667 -18 28 -42.333 28 -73c0 -15.333 -2.66699 -29.333 -8 -42s-12.833 -23.834 -22.5 -33.501s-21 -17.167 -34 -22.5s-26.833 -8 -41.5 -8
c-26 0 -50.333 10 -73 30c-50.667 40 -106.5 70.667 -167.5 92s-125.833 32 -194.5 32c-162.667 0 -301.667 -57.667 -417 -173c-114 -114 -171 -252.333 -171 -415c0 -163.333 57 -302 171 -416c114.667 -114.667 253.667 -172 417 -172c139.333 0 262 43 368 129
c17.333 12 38 18.333 62 19zM1159 1913c33.333 -25.333 50 -55.333 50 -90c0 -30 -9.83301 -54.833 -29.5 -74.5s-44.5 -29.5 -74.5 -29.5c-23.333 0 -45.333 7.33301 -66 22l-162 107l-162 -107c-20 -14.667 -42 -22 -66 -22c-30 0 -54.833 9.83301 -74.5 29.5
s-29.5 44.5 -29.5 74.5c0 35.333 16.333 65.333 49 90l229 151c16.667 10.667 34.667 16 54 16s37.333 -5.33301 54 -16z" />
    <glyph glyph-name="ccircumflex" unicode="&#x109;" horiz-adv-x="1120" 
d="M932 317c30 0 54.833 -9.83105 74.5 -29.498s29.5 -44.5 29.5 -74.5c0 -29.333 -11 -55 -33 -77c-103.333 -90.667 -225 -136 -365 -136c-154.667 0 -286.667 54.667 -396 164s-164 241.333 -164 396s54.667 286.667 164 396s241.333 164 396 164
c140.667 0 262.334 -45.333 365.001 -136c24 -21.333 36 -47.666 36 -78.999c0 -30 -9.83301 -55 -29.5 -75s-44.5 -30 -74.5 -30c-25.333 0 -48 8 -68 24c-34 28.667 -69.667 50.334 -107 65.001s-78 22 -122 22c-48.667 0 -94.334 -9.16699 -137.001 -27.5
s-80 -43.333 -112 -75s-57.167 -68.834 -75.5 -111.501s-27.5 -88.334 -27.5 -137.001s9.16699 -94.334 27.5 -137.001s43.5 -79.834 75.5 -111.501s69.333 -56.667 112 -75s88.334 -27.5 137.001 -27.5c44 0 84.667 7.16699 122 21.5s72.666 35.833 105.999 64.5
c18.667 14 40.667 21.333 66 22zM919 1433c33.333 -25.333 50 -55.333 50 -90c0 -30 -9.83301 -54.833 -29.5 -74.5s-44.5 -29.5 -74.5 -29.5c-23.333 0 -45.333 7.33301 -66 22l-162 107l-162 -107c-20 -14.667 -42 -22 -66 -22c-30 0 -54.833 9.83301 -74.5 29.5
s-29.5 44.5 -29.5 74.5c0 35.333 16.333 65.333 49 90l229 151c16.667 10.667 34.667 16 54 16s37.333 -5.33301 54 -16z" />
    <glyph glyph-name="Cdotaccent" unicode="&#x10a;" horiz-adv-x="1480" 
d="M1308 360c14.667 0 28.3311 -2.83203 40.998 -8.49902s23.834 -13.167 33.501 -22.5s17.334 -20.5 23.001 -33.5s8.5 -26.833 8.5 -41.5c0 -28 -11 -53.333 -33 -76c-148.667 -118.667 -316.334 -178 -503.001 -178c-221.333 0 -410 78 -566 234s-234 344.667 -234 566
c0 220.667 78 409 234 565c156.667 156.667 345.334 235 566.001 235c189.333 0 360.333 -62.333 513 -187c18.667 -18 28 -42.333 28 -73c0 -15.333 -2.66699 -29.333 -8 -42s-12.833 -23.834 -22.5 -33.501s-21 -17.167 -34 -22.5s-26.833 -8 -41.5 -8
c-26 0 -50.333 10 -73 30c-50.667 40 -106.5 70.667 -167.5 92s-125.833 32 -194.5 32c-162.667 0 -301.667 -57.667 -417 -173c-114 -114 -171 -252.333 -171 -415c0 -163.333 57 -302 171 -416c114.667 -114.667 253.667 -172 417 -172c139.333 0 262 43 368 129
c17.333 12 38 18.333 62 19zM1022 1859c0 -39.333 -13.833 -72.833 -41.5 -100.5s-61.167 -41.5 -100.5 -41.5s-72.833 13.833 -100.5 41.5s-41.5 61.167 -41.5 100.5s13.833 72.833 41.5 100.5s61.167 41.5 100.5 41.5s72.833 -13.833 100.5 -41.5
s41.5 -61.167 41.5 -100.5z" />
    <glyph glyph-name="cdotaccent" unicode="&#x10b;" horiz-adv-x="1120" 
d="M932 317c30 0 54.833 -9.83105 74.5 -29.498s29.5 -44.5 29.5 -74.5c0 -29.333 -11 -55 -33 -77c-103.333 -90.667 -225 -136 -365 -136c-154.667 0 -286.667 54.667 -396 164s-164 241.333 -164 396s54.667 286.667 164 396s241.333 164 396 164
c140.667 0 262.334 -45.333 365.001 -136c24 -21.333 36 -47.666 36 -78.999c0 -30 -9.83301 -55 -29.5 -75s-44.5 -30 -74.5 -30c-25.333 0 -48 8 -68 24c-34 28.667 -69.667 50.334 -107 65.001s-78 22 -122 22c-48.667 0 -94.334 -9.16699 -137.001 -27.5
s-80 -43.333 -112 -75s-57.167 -68.834 -75.5 -111.501s-27.5 -88.334 -27.5 -137.001s9.16699 -94.334 27.5 -137.001s43.5 -79.834 75.5 -111.501s69.333 -56.667 112 -75s88.334 -27.5 137.001 -27.5c44 0 84.667 7.16699 122 21.5s72.666 35.833 105.999 64.5
c18.667 14 40.667 21.333 66 22zM779 1379c0 -39.333 -13.833 -72.833 -41.5 -100.5s-61.167 -41.5 -100.5 -41.5s-72.833 13.833 -100.5 41.5s-41.5 61.167 -41.5 100.5s13.833 72.833 41.5 100.5s61.167 41.5 100.5 41.5s72.833 -13.833 100.5 -41.5
s41.5 -61.167 41.5 -100.5z" />
    <glyph glyph-name="Ccaron" unicode="&#x10c;" horiz-adv-x="1480" 
d="M1308 360c14.667 0 28.3311 -2.83203 40.998 -8.49902s23.834 -13.167 33.501 -22.5s17.334 -20.5 23.001 -33.5s8.5 -26.833 8.5 -41.5c0 -28 -11 -53.333 -33 -76c-148.667 -118.667 -316.334 -178 -503.001 -178c-221.333 0 -410 78 -566 234s-234 344.667 -234 566
c0 220.667 78 409 234 565c156.667 156.667 345.334 235 566.001 235c189.333 0 360.333 -62.333 513 -187c18.667 -18 28 -42.333 28 -73c0 -15.333 -2.66699 -29.333 -8 -42s-12.833 -23.834 -22.5 -33.501s-21 -17.167 -34 -22.5s-26.833 -8 -41.5 -8
c-26 0 -50.333 10 -73 30c-50.667 40 -106.5 70.667 -167.5 92s-125.833 32 -194.5 32c-162.667 0 -301.667 -57.667 -417 -173c-114 -114 -171 -252.333 -171 -415c0 -163.333 57 -302 171 -416c114.667 -114.667 253.667 -172 417 -172c139.333 0 262 43 368 129
c17.333 12 38 18.333 62 19zM928.997 1735c-16.667 -10.667 -34.667 -16 -54 -16s-37.333 5.33301 -54 16l-229 151c-32.667 24.667 -49 54.667 -49 90c0 30 9.83301 54.833 29.5 74.5s44.5 29.5 74.5 29.5c24 0 46 -7.33301 66 -22l162 -107l162 107
c20.667 14.667 42.667 22 66 22c30 0 54.833 -9.83301 74.5 -29.5s29.5 -44.5 29.5 -74.5c0 -34.667 -16.667 -64.667 -50 -90z" />
    <glyph glyph-name="ccaron" unicode="&#x10d;" horiz-adv-x="1120" 
d="M932 317c30 0 54.833 -9.83105 74.5 -29.498s29.5 -44.5 29.5 -74.5c0 -29.333 -11 -55 -33 -77c-103.333 -90.667 -225 -136 -365 -136c-154.667 0 -286.667 54.667 -396 164s-164 241.333 -164 396s54.667 286.667 164 396s241.333 164 396 164
c140.667 0 262.334 -45.333 365.001 -136c24 -21.333 36 -47.666 36 -78.999c0 -30 -9.83301 -55 -29.5 -75s-44.5 -30 -74.5 -30c-25.333 0 -48 8 -68 24c-34 28.667 -69.667 50.334 -107 65.001s-78 22 -122 22c-48.667 0 -94.334 -9.16699 -137.001 -27.5
s-80 -43.333 -112 -75s-57.167 -68.834 -75.5 -111.501s-27.5 -88.334 -27.5 -137.001s9.16699 -94.334 27.5 -137.001s43.5 -79.834 75.5 -111.501s69.333 -56.667 112 -75s88.334 -27.5 137.001 -27.5c44 0 84.667 7.16699 122 21.5s72.666 35.833 105.999 64.5
c18.667 14 40.667 21.333 66 22zM687 1255c-16.667 -10.667 -34.667 -16 -54 -16s-37.333 5.33301 -54 16l-229 151c-32.667 24.667 -49 54.667 -49 90c0 30 9.83301 54.833 29.5 74.5s44.5 29.5 74.5 29.5c24 0 46 -7.33301 66 -22l162 -107l162 107
c20.667 14.667 42.667 22 66 22c30 0 54.833 -9.83301 74.5 -29.5s29.5 -44.5 29.5 -74.5c0 -34.667 -16.667 -64.667 -50 -90z" />
    <glyph glyph-name="Dcaron" unicode="&#x10e;" horiz-adv-x="1360" 
d="M491 212c162 0 300.332 57.334 414.999 172.001c58 58 101.333 121.167 130 189.5s43 143.833 43 226.5c0 161.333 -57.667 299.666 -173 414.999s-253.666 173 -414.999 173h-202v-1176h202zM490.999 1600c220 0 408.333 -78.332 565 -234.999
c78.667 -78.667 137.5 -164.5 176.5 -257.5s58.5 -195.5 58.5 -307.5c0 -220.667 -78.333 -409.334 -235 -566.001c-156 -156 -344.333 -234 -565 -234h-308c-14.667 0 -28.5 2.83301 -41.5 8.5s-24.333 13.167 -34 22.5s-17.334 20.5 -23.001 33.5s-8.5 26.833 -8.5 41.5
v1388c0 14.667 2.83301 28.5 8.5 41.5s13.334 24.167 23.001 33.5s21 16.833 34 22.5s26.833 8.5 41.5 8.5h308zM609.999 1735c-16.667 -10.667 -34.667 -16 -54 -16s-37.333 5.33301 -54 16l-229 151c-32.667 24.667 -49 54.667 -49 90c0 30 9.83301 54.833 29.5 74.5
s44.5 29.5 74.5 29.5c24 0 46 -7.33301 66 -22l162 -107l162 107c20.667 14.667 42.667 22 66 22c30 0 54.833 -9.83301 74.5 -29.5s29.5 -44.5 29.5 -74.5c0 -34.667 -16.667 -64.667 -50 -90z" />
    <glyph glyph-name="dcaron" unicode="&#x10f;" horiz-adv-x="1600" 
d="M991 560c0 48 -9.16699 93.1709 -27.5 135.504s-43.333 79.5 -75 111.5s-68.834 57.333 -111.501 76s-88.334 28 -137.001 28c-49.333 0 -95.333 -9.33301 -138 -28s-79.667 -43.834 -111 -75.501s-56.166 -68.834 -74.499 -111.501s-27.5 -88 -27.5 -136
s9.16699 -93.333 27.5 -136s43.166 -79.834 74.499 -111.501s68.333 -56.834 111 -75.501s88.667 -28 138 -28c48.667 0 94.334 9.33301 137.001 28s79.834 44 111.501 76s56.667 69.167 75 111.5s27.5 87.5 27.5 135.5zM640 1120c132.667 0 249.668 -41 351.001 -123v499
c0 30 9.83301 54.833 29.5 74.5s44.5 29.5 74.5 29.5c29.333 0 54.166 -9.83301 74.499 -29.5s30.5 -44.5 30.5 -74.5v-936c0 -156 -54.667 -288 -164 -396c-110.667 -109.333 -242.667 -164 -396 -164c-154.667 0 -286.667 54.667 -396 164s-164 241.333 -164 396
s54.667 286.667 164 396s241.333 164 396 164zM1268 1475c0 17.333 3.33301 33.5 10 48.5s15.5 28.167 26.5 39.5s24.167 20.166 39.5 26.499s31.333 9.5 48 9.5c30.667 0 57 -10.667 79 -32s40 -47.5 54 -78.5s24.167 -63 30.5 -96s9.5 -63.833 9.5 -92.5
c0 -118 -50.333 -237.333 -151 -358c-18 -18 -38.333 -27 -61 -27c-23.333 0 -43.333 8.33301 -60 25s-25 36.667 -25 60c0 11.333 2.33301 23 7 35c30 73.333 45 143 45 209c0 62.667 -13.667 123.334 -41 182.001c-7.33301 16.667 -11 33 -11 49z" />
    <glyph glyph-name="Dcroat" unicode="&#x110;" horiz-adv-x="1520" 
d="M230 906v588c0 14.667 2.83301 28.5 8.5 41.5s13.334 24.167 23.001 33.5s20.834 16.833 33.501 22.5s26.334 8.5 41.001 8.5h309c220 0 408.333 -78.333 565 -235c78.667 -78.667 137.5 -164.5 176.5 -257.5s58.5 -195.5 58.5 -307.5
c0 -220.667 -78.333 -409.334 -235 -566.001c-156 -156 -344.333 -234 -565 -234h-309c-14.667 0 -28.334 2.83301 -41.001 8.5s-23.834 13.167 -33.501 22.5s-17.334 20.5 -23.001 33.5s-8.5 26.833 -8.5 41.5v588h-124c-15.333 0 -29.333 2.66699 -42 8
s-23.834 12.833 -33.501 22.5s-17.167 20.834 -22.5 33.501s-8 26.667 -8 42c0 14.667 2.66699 28.5 8 41.5s12.833 24.333 22.5 34s20.834 17.167 33.501 22.5s26.667 8 42 8h124zM442 906l279.999 0.00195312c30 0 55.167 -10.167 75.5 -30.5s30.5 -45.5 30.5 -75.5
c0 -15.333 -2.66699 -29.333 -8 -42s-12.833 -23.834 -22.5 -33.501s-21 -17.167 -34 -22.5s-26.833 -8 -41.5 -8h-280v-482h203c162 0 300.333 57.333 415 172c58 58 101.333 121.167 130 189.5s43 143.833 43 226.5c0 161.333 -57.667 299.666 -173 414.999
s-253.666 173 -414.999 173h-203v-482z" />
    <glyph glyph-name="dcroat" unicode="&#x111;" horiz-adv-x="1440" 
d="M993 560c0 48 -9.16699 93.1709 -27.5 135.504s-43.333 79.5 -75 111.5s-68.834 57.333 -111.501 76s-88.334 28 -137.001 28c-49.333 0 -95.333 -9.33301 -138 -28s-79.667 -43.834 -111 -75.501s-56.166 -68.834 -74.499 -111.501s-27.5 -88 -27.5 -136
s9.16699 -93.333 27.5 -136s43.166 -79.834 74.499 -111.501s68.333 -56.834 111 -75.501s88.667 -28 138 -28c48.667 0 94.334 9.33301 137.001 28s79.834 44 111.501 76s56.667 69.167 75 111.5s27.5 87.5 27.5 135.5zM993 1447l-0.00292969 49
c0 30 9.83301 54.833 29.5 74.5s44.5 29.5 74.5 29.5c29.333 0 54.166 -9.83301 74.499 -29.5s30.5 -44.5 30.5 -74.5v-49h47c14.667 0 28.334 -2.83301 41.001 -8.5s23.667 -13.167 33 -22.5s16.833 -20.333 22.5 -33s8.5 -26.334 8.5 -41.001
c0 -30 -10.167 -54.833 -30.5 -74.5s-45.166 -29.5 -74.499 -29.5h-47v-678c0 -156 -54.667 -288 -164 -396c-110.667 -109.333 -242.667 -164 -396 -164c-154.667 0 -286.667 54.667 -396 164s-164 241.333 -164 396s54.667 286.667 164 396s241.333 164 396 164
c132.667 0 249.667 -41 351 -123v241h-275c-30 0 -55 9.83301 -75 29.5s-30 44.5 -30 74.5c0 14.667 2.66699 28.334 8 41.001s12.833 23.667 22.5 33s20.834 16.833 33.501 22.5s26.334 8.5 41.001 8.5h275z" />
    <glyph glyph-name="Emacron" unicode="&#x112;" 
d="M1107 212c29.333 0 54.333 -10.334 75 -31.001s31 -45.667 31 -75s-10.333 -54.333 -31 -75s-45.667 -31 -75 -31h-925c-15.333 0 -29.333 2.66699 -42 8s-23.834 12.833 -33.501 22.5s-17.167 20.834 -22.5 33.501s-8 26.667 -8 42v1388c0 14.667 2.66699 28.5 8 41.5
s12.833 24.333 22.5 34s20.834 17.167 33.501 22.5s26.667 8 42 8h925c29.333 0 54.333 -10.333 75 -31s31 -45.667 31 -75s-10.333 -54.333 -31 -75s-45.667 -31 -75 -31h-819v-482h588c29.333 0 54.333 -10.333 75 -31s31 -45.667 31 -75s-10.333 -54.333 -31 -75
s-45.667 -31 -75 -31h-588v-482h819zM409 1731c-30 0 -54.833 9.83301 -74.5 29.5s-29.5 44.5 -29.5 74.5c0 29.333 9.83301 54.166 29.5 74.499s44.5 30.5 74.5 30.5h456c30 0 54.833 -10.167 74.5 -30.5s29.5 -45.166 29.5 -74.499c0 -30 -9.83301 -54.833 -29.5 -74.5
s-44.5 -29.5 -74.5 -29.5h-456z" />
    <glyph glyph-name="emacron" unicode="&#x113;" 
d="M977 664c-11.333 36.667 -28.166 70.167 -50.499 100.5s-48.333 56.333 -78 78s-62.334 38.5 -98.001 50.5s-72.5 18 -110.5 18s-75 -6 -111 -18s-69 -28.833 -99 -50.5s-56 -47.667 -78 -78s-38.333 -63.833 -49 -100.5h674zM932 315
c30 0 54.8301 -9.83496 74.4971 -29.502s29.5 -44.5 29.5 -74.5c0 -29.333 -10 -54.333 -30 -75c-103.333 -90.667 -225.333 -136 -366 -136c-154.667 0 -286.667 54.667 -396 164s-164 241.333 -164 396s54.667 286.667 164 396s241.333 164 396 164
c153.333 0 285.333 -54.667 396 -164c54.667 -54 95.667 -114.167 123 -180.5s41 -138.166 41 -215.499c0 -30 -10.167 -54.833 -30.5 -74.5s-45.166 -29.5 -74.499 -29.5h-792c11.333 -36.667 28 -70.167 50 -100.5s47.833 -56.333 77.5 -78s62.334 -38.5 98.001 -50.5
s72.834 -18 111.501 -18c44 0 84.333 6.66699 121 20s70.667 33.333 102 60c20 16.667 43 25.334 69 26.001zM407.997 1251c-30 0 -54.833 9.83301 -74.5 29.5s-29.5 44.5 -29.5 74.5c0 29.333 9.83301 54.166 29.5 74.499s44.5 30.5 74.5 30.5h456
c30 0 54.833 -10.167 74.5 -30.5s29.5 -45.166 29.5 -74.499c0 -30 -9.83301 -54.833 -29.5 -74.5s-44.5 -29.5 -74.5 -29.5h-456z" />
    <glyph glyph-name="Ebreve" unicode="&#x114;" 
d="M1107 212c29.333 0 54.333 -10.334 75 -31.001s31 -45.667 31 -75s-10.333 -54.333 -31 -75s-45.667 -31 -75 -31h-925c-15.333 0 -29.333 2.66699 -42 8s-23.834 12.833 -33.501 22.5s-17.167 20.834 -22.5 33.501s-8 26.667 -8 42v1388c0 14.667 2.66699 28.5 8 41.5
s12.833 24.333 22.5 34s20.834 17.167 33.501 22.5s26.667 8 42 8h925c29.333 0 54.333 -10.333 75 -31s31 -45.667 31 -75s-10.333 -54.333 -31 -75s-45.667 -31 -75 -31h-819v-482h588c29.333 0 54.333 -10.333 75 -31s31 -45.667 31 -75s-10.333 -54.333 -31 -75
s-45.667 -31 -75 -31h-588v-482h819zM643 1719c-46 0 -89.168 6.5 -129.501 19.5s-75.5 31 -105.5 54s-53.833 50.167 -71.5 81.5s-26.5 65 -26.5 101c0 29.333 9.83301 54.166 29.5 74.499s44.5 30.5 74.5 30.5s55 -10 75 -30c14.667 -15.333 23.667 -33.333 27 -54
c2 -18.667 14.667 -34.334 38 -47.001c24.667 -14 54.334 -21 89.001 -21s64.334 7 89.001 21c23.333 12.667 35.666 28.334 36.999 47.001c4 20.667 13.333 38.667 28 54c20 20 45 30 75 30s54.833 -10.167 74.5 -30.5s29.5 -45.166 29.5 -74.499
c0 -36 -8.83301 -69.667 -26.5 -101s-41.5 -58.5 -71.5 -81.5s-65.167 -41 -105.5 -54s-83.5 -19.5 -129.5 -19.5z" />
    <glyph glyph-name="ebreve" unicode="&#x115;" 
d="M977 664c-11.333 36.667 -28.166 70.167 -50.499 100.5s-48.333 56.333 -78 78s-62.334 38.5 -98.001 50.5s-72.5 18 -110.5 18s-75 -6 -111 -18s-69 -28.833 -99 -50.5s-56 -47.667 -78 -78s-38.333 -63.833 -49 -100.5h674zM932 315
c30 0 54.8301 -9.83496 74.4971 -29.502s29.5 -44.5 29.5 -74.5c0 -29.333 -10 -54.333 -30 -75c-103.333 -90.667 -225.333 -136 -366 -136c-154.667 0 -286.667 54.667 -396 164s-164 241.333 -164 396s54.667 286.667 164 396s241.333 164 396 164
c153.333 0 285.333 -54.667 396 -164c54.667 -54 95.667 -114.167 123 -180.5s41 -138.166 41 -215.499c0 -30 -10.167 -54.833 -30.5 -74.5s-45.166 -29.5 -74.499 -29.5h-792c11.333 -36.667 28 -70.167 50 -100.5s47.833 -56.333 77.5 -78s62.334 -38.5 98.001 -50.5
s72.834 -18 111.501 -18c44 0 84.333 6.66699 121 20s70.667 33.333 102 60c20 16.667 43 25.334 69 26.001zM642.997 1239c-46 0 -89.168 6.5 -129.501 19.5s-75.5 31 -105.5 54s-53.833 50.167 -71.5 81.5s-26.5 65 -26.5 101c0 29.333 9.83301 54.166 29.5 74.499
s44.5 30.5 74.5 30.5s55 -10 75 -30c14.667 -15.333 23.667 -33.333 27 -54c2 -18.667 14.667 -34.334 38 -47.001c24.667 -14 54.334 -21 89.001 -21s64.334 7 89.001 21c23.333 12.667 35.666 28.334 36.999 47.001c4 20.667 13.333 38.667 28 54c20 20 45 30 75 30
s54.833 -10.167 74.5 -30.5s29.5 -45.166 29.5 -74.499c0 -36 -8.83301 -69.667 -26.5 -101s-41.5 -58.5 -71.5 -81.5s-65.167 -41 -105.5 -54s-83.5 -19.5 -129.5 -19.5z" />
    <glyph glyph-name="Edotaccent" unicode="&#x116;" 
d="M1107 212c29.333 0 54.333 -10.334 75 -31.001s31 -45.667 31 -75s-10.333 -54.333 -31 -75s-45.667 -31 -75 -31h-925c-15.333 0 -29.333 2.66699 -42 8s-23.834 12.833 -33.501 22.5s-17.167 20.834 -22.5 33.501s-8 26.667 -8 42v1388c0 14.667 2.66699 28.5 8 41.5
s12.833 24.333 22.5 34s20.834 17.167 33.501 22.5s26.667 8 42 8h925c29.333 0 54.333 -10.333 75 -31s31 -45.667 31 -75s-10.333 -54.333 -31 -75s-45.667 -31 -75 -31h-819v-482h588c29.333 0 54.333 -10.333 75 -31s31 -45.667 31 -75s-10.333 -54.333 -31 -75
s-45.667 -31 -75 -31h-588v-482h819zM784 1859c0 -39.333 -13.833 -72.833 -41.5 -100.5s-61.167 -41.5 -100.5 -41.5s-72.833 13.833 -100.5 41.5s-41.5 61.167 -41.5 100.5s13.833 72.833 41.5 100.5s61.167 41.5 100.5 41.5s72.833 -13.833 100.5 -41.5
s41.5 -61.167 41.5 -100.5z" />
    <glyph glyph-name="edotaccent" unicode="&#x117;" 
d="M977 664c-11.333 36.667 -28.166 70.167 -50.499 100.5s-48.333 56.333 -78 78s-62.334 38.5 -98.001 50.5s-72.5 18 -110.5 18s-75 -6 -111 -18s-69 -28.833 -99 -50.5s-56 -47.667 -78 -78s-38.333 -63.833 -49 -100.5h674zM932 315
c30 0 54.8301 -9.83496 74.4971 -29.502s29.5 -44.5 29.5 -74.5c0 -29.333 -10 -54.333 -30 -75c-103.333 -90.667 -225.333 -136 -366 -136c-154.667 0 -286.667 54.667 -396 164s-164 241.333 -164 396s54.667 286.667 164 396s241.333 164 396 164
c153.333 0 285.333 -54.667 396 -164c54.667 -54 95.667 -114.167 123 -180.5s41 -138.166 41 -215.499c0 -30 -10.167 -54.833 -30.5 -74.5s-45.166 -29.5 -74.499 -29.5h-792c11.333 -36.667 28 -70.167 50 -100.5s47.833 -56.333 77.5 -78s62.334 -38.5 98.001 -50.5
s72.834 -18 111.501 -18c44 0 84.333 6.66699 121 20s70.667 33.333 102 60c20 16.667 43 25.334 69 26.001zM782.997 1379c0 -39.333 -13.833 -72.833 -41.5 -100.5s-61.167 -41.5 -100.5 -41.5s-72.833 13.833 -100.5 41.5s-41.5 61.167 -41.5 100.5
s13.833 72.833 41.5 100.5s61.167 41.5 100.5 41.5s72.833 -13.833 100.5 -41.5s41.5 -61.167 41.5 -100.5z" />
    <glyph glyph-name="Eogonek" unicode="&#x118;" 
d="M1107 212c29.333 0 54.333 -10.334 75 -31.001s31 -45.667 31 -75s-10.333 -54.333 -31 -75s-45.667 -31 -75 -31h-925c-15.333 0 -29.333 2.66699 -42 8s-23.834 12.833 -33.501 22.5s-17.167 20.834 -22.5 33.501s-8 26.667 -8 42v1388c0 14.667 2.66699 28.5 8 41.5
s12.833 24.333 22.5 34s20.834 17.167 33.501 22.5s26.667 8 42 8h925c29.333 0 54.333 -10.333 75 -31s31 -45.667 31 -75s-10.333 -54.333 -31 -75s-45.667 -31 -75 -31h-819v-482h588c29.333 0 54.333 -10.333 75 -31s31 -45.667 31 -75s-10.333 -54.333 -31 -75
s-45.667 -31 -75 -31h-588v-482h819zM877 50.999c8.66699 17.333 20.6709 30.833 36.0039 40.5s33.666 14.5 54.999 14.5c29.333 0 53.833 -9.66699 73.5 -29s30.167 -43.666 31.5 -72.999c0 -30.667 -11 -61.667 -33 -93s-54.333 -62.666 -97 -93.999
c-14.667 -12 -22 -25.333 -22 -40c0 -13.333 4.66699 -24.666 14 -33.999s20.666 -14 33.999 -14c9.33301 0 17.666 2.66699 24.999 8l63 47c18 14 39.333 21 64 21c30 0 54.833 -9.83301 74.5 -29.5s29.5 -44.5 29.5 -74.5c0 -34 -12.667 -61.667 -38 -83l-77 -53
c-43.333 -30 -90.333 -45 -141 -45c-34 0 -66.5 6.66699 -97.5 20s-58.333 31.666 -82 54.999s-42.334 50.666 -56.001 81.999s-20.5 64.666 -20.5 99.999c0 82.667 35.667 152 107 208c28 23.333 47 45.333 57 66z" />
    </font>
</defs>
</svg>
